<?xml version="1.0" standalone="no"?>
<!DOCTYPE svg PUBLIC "-//W3C//DTD SVG 1.1//EN" "http://www.w3.org/Graphics/SVG/1.1/DTD/svg11.dtd">
<svg xmlns="http://www.w3.org/2000/svg">
<defs >
<font id="Exo" horiz-adv-x="531" ><font-face
    font-family="Exo Thin"
    units-per-em="1000"
    panose-1="0 0 0 0 0 0 0 0 0 0"
    ascent="1002"
    descent="-327"
    alphabetic="0" />
<glyph unicode=" " horiz-adv-x="246" />
<glyph unicode="!" horiz-adv-x="272" d="M112 203L179 739H327L221 203H112ZM92 -1Q74 -1 74 15Q74 16 74 17T74 19L91 121Q94 142 115 142H201Q219 142 219 127Q219 126 219 125T219 121L202 19Q201 7 194 3T178 -1H92Z" />
<glyph unicode="&quot;" horiz-adv-x="400" d="M123 497L144 687L154 754H296L286 687L247 497H123ZM305 497L326 687L336 754H478L468 687L429 497H305Z" />
<glyph unicode="#" horiz-adv-x="723" d="M129 0L199 207H48L79 306H234L274 425H117L149 524H309L380 732H480L409 524H523L593 732H693L623 524H793L763 425H592L552 306H723L693 207H514L444 0H344L414 207H299L229 0H129ZM334 306H453L492 425H374L334 306Z" />
<glyph unicode="$" horiz-adv-x="609" d="M377 722L385 800L467 824L460 746L377 722ZM244 -89L259 10L343 9L328 -89H244ZM306 -6Q253 -6 208 -3T126 6T62 18L80 135Q125 132 185 130T303 127Q345 127 373 133T417 155T437 200L441 226Q442 232 442 236T443 246Q443
274 423 286T359 298H300Q215 298 169 340T123 454Q123 474 126 496L136 556Q147 627 181 669T271 728T400 746Q424 746 452 745T509 740T568 732T626 721L607 604Q573 607 532 608T452 611T382 612Q352 612 330 606T293 584T274 539L270 513Q269 507 269 502T268
491Q268 463 284 451T335 438H398Q492 438 539 395T587 282Q587 264 584 242L574 173Q564 111 534 72T449 13T306 -6Z" />
<glyph unicode="%" horiz-adv-x="964" d="M205 0L771 732H867L307 0H205ZM222 349Q160 349 133 373T106 445Q106 463 109 481L128 600Q138 664 173 698T285 732H386Q449 732 476 708T503 636Q503 628 503 619T500 600L481 481Q471 417 435 383T323 349H222ZM256
445H320Q355 445 369 459T388 503L400 578Q402 584 402 589T402 598Q402 620 390 628T352 636H288Q260 636 243 626T220 578L208 503Q208 498 207 493T206 483Q206 464 217 455T256 445ZM694 3Q633 3 606 27T579 99Q579 116 582 135L601 254Q611 318 646 352T757
386H859Q922 386 949 362T976 290Q976 282 976 273T973 254L954 135Q944 71 908 37T796 3H694ZM729 99H792Q827 99 842 113T862 157L873 232Q875 238 875 243T875 252Q875 274 863 282T825 290H761Q734 290 717 280T693 232L682 157Q681 152 680 147T679 137Q679
118 690 109T729 99Z" />
<glyph unicode="&amp;" horiz-adv-x="698" d="M231 -6Q153 -6 106 40T58 164Q58 218 72 259T115 332T188 390L260 431L249 451Q231 485 226 513T220 564Q220 612 243 651T315 714T436 737Q471 737 503 734T562 725T607 714L590 606H444Q405 606 386 591T367 548Q367
532 375 511T400 461L509 271L672 400L716 333L638 221L572 166L670 0H518L459 92L417 60Q370 24 327 9T231 -6ZM276 130Q298 130 320 137T368 166L397 191L314 330L279 310Q251 294 236 278T215 242T209 200Q209 169 227 150T276 130Z" />
<glyph unicode="&apos;" horiz-adv-x="218" d="M123 497L144 687L154 754H296L286 687L247 497H123Z" />
<glyph unicode="(" horiz-adv-x="387" d="M206 -210Q175 -164 150 -109T111 15T96 166Q96 242 111 321T153 478T215 626T291 756T375 860H507Q455 796 408 715T324 543T266 358T245 175Q245 68 269 -25T338 -210H206Z" />
<glyph unicode=")" horiz-adv-x="386" d="M-18 -210Q36 -143 83 -61T167 111T224 295T245 478Q245 584 221 674T151 860H284Q315 813 340 758T379 636T393 486Q393 409 379 331T338 176T276 28T200 -103T115 -210H-18Z" />
<glyph unicode="*" horiz-adv-x="435" d="M366 507L328 566L458 647L483 603L366 507ZM373 401L261 469L312 533L412 445L373 401ZM204 399L155 416L203 553L274 534L204 399ZM123 573L131 628L274 643L266 568L123 573ZM301 586L278 722L333 739L376 614L301 586Z" />
<glyph unicode="+" horiz-adv-x="609" d="M266 132L336 580H455L385 132H266ZM127 296L146 416H594L575 296H127Z" />
<glyph unicode="," horiz-adv-x="234" d="M91 -89Q72 -89 59 -86T45 -83L52 -36Q66 -36 73 -32T82 -16L86 10H77Q59 10 59 28Q59 30 59 34T61 46L73 119Q75 142 98 142H182Q199 142 199 125Q199 123 199 118T197 105L177 -18Q172 -47 158 -63T127 -84T91 -89Z" />
<glyph unicode="-" horiz-adv-x="347" d="M58 230L76 350H382L364 230H58Z" />
<glyph unicode="." horiz-adv-x="234" d="M74 -1Q56 -1 56 15Q56 16 56 17T56 19L73 121Q76 142 97 142H183Q201 142 201 127Q201 126 201 125T201 121L184 19Q183 7 176 3T160 -1H74Z" />
<glyph unicode="/" horiz-adv-x="462" d="M4 -72L418 770H569L155 -72H4Z" />
<glyph unicode="0" horiz-adv-x="647" d="M248 -4Q195 -4 157 12T100 61T80 142Q80 152 81 163T84 187L141 547Q152 612 182 656T260 723T368 746H523Q603 746 643 707T683 596Q683 585 682 573T679 547L622 187Q607 94 550 45T403 -4H248ZM305 129H385Q425 129
448 149T477 209L528 533Q530 539 530 544T530 555Q530 586 513 599T467 613H376Q339 613 317 593T287 533L236 210Q235 204 235 199T234 188Q234 158 252 144T305 129Z" />
<glyph unicode="1" horiz-adv-x="372" d="M162 0L258 606L123 582L138 677L296 740H428L310 0H162Z" />
<glyph unicode="2" horiz-adv-x="586" d="M46 0L64 119L346 364Q402 414 428 459T455 540Q455 561 447 575T421 598T372 606H159L178 722Q223 730 279 738T404 746Q478 746 522 725T585 667T604 583Q604 510 571 439T458 299L271 134H572L551 0H46Z" />
<glyph unicode="3" horiz-adv-x="579" d="M320 -6Q240 -6 169 -1T40 15L58 126H285Q325 126 352 132T395 155T415 201Q419 222 420 231T422 243Q422 266 408 280T371 303T317 312L154 319L171 425L349 435Q394 437 421 454T455 505Q457 521 458 528T459 540T459
546Q459 583 431 598T357 613H151L168 724Q223 733 288 739T425 746Q486 746 527 732T591 687T614 602Q614 596 614 588T611 562T602 508Q598 480 587 457T561 418T527 390T488 372Q504 367 518 357T544 332T562 297T569 252Q569 242 567 225T560 176Q546 87 483
41T320 -6Z" />
<glyph unicode="4" horiz-adv-x="619" d="M375 1L400 157H76L59 227L380 740H532L244 283H420L442 427L485 512H604L568 283H644L628 181L548 157L523 1H375Z" />
<glyph unicode="5" horiz-adv-x="607" d="M313 -5Q254 -5 190 0T69 11L88 128H340Q377 128 399 140T433 171T448 212L456 263Q457 269 457 274T458 285Q458 312 443 326T392 341H334Q301 341 283 328T256 286H114L207 740H652L630 607H327L293 434Q309 449 332
458T384 467H464Q540 467 576 428T612 329Q612 319 612 310T609 290L591 181Q581 116 546 75T453 15T313 -5Z" />
<glyph unicode="6" horiz-adv-x="607" d="M272 -5Q215 -5 175 14T114 79T93 209Q93 301 105 382T144 530T212 645T312 719T449 746Q498 746 547 742T634 730L615 613H441Q393 613 358 593T300 531T267 429Q291 436 317 439T373 444T437 446Q499 446 537 431T592
388T610 320Q610 310 609 299T606 276L589 170Q580 107 551 69T477 13T379 -5H272ZM322 128H367Q389 128 405 135T431 158T446 199L454 248Q455 254 455 260T456 271Q456 291 447 301T420 316T375 320H250Q246 292 244 269T241 227Q241 190 250 168T277 137T322
128Z" />
<glyph unicode="7" horiz-adv-x="554" d="M114 0L434 592H120L143 740H610L638 677L286 0H114Z" />
<glyph unicode="8" horiz-adv-x="628" d="M245 -4Q178 -4 142 12T92 56T78 113Q78 124 79 133T82 152L99 258Q104 287 117 311T152 354T199 377Q170 393 159 414T148 460Q148 471 149 483T153 507L166 593Q176 653 205 686T275 732T364 746H515Q582 746 617 720T653
633Q653 624 652 614T649 591L636 507Q634 494 628 476T612 439T587 407T551 389Q588 381 601 354T615 296Q615 286 614 278T612 261L595 157Q585 92 556 57T486 9T395 -4H245ZM298 121H372Q413 121 429 137T451 184L462 250Q462 254 462 258T463 265Q463 290 449
302T402 315H328Q315 315 301 311T276 299T257 279T246 250L235 184Q234 180 234 176T234 167Q234 143 250 132T298 121ZM348 441H421Q446 441 460 450T481 474T492 509L499 556Q500 562 500 567T501 577Q501 604 488 612T452 620H377Q345 620 328 607T305 556L298
509Q297 502 297 497T296 486Q296 462 308 452T348 441Z" />
<glyph unicode="9" horiz-adv-x="607" d="M451 746Q508 746 548 727T609 662T630 532Q630 440 618 359T579 211T511 96T411 22T274 -5Q225 -5 176 -1T89 11L108 128H282Q330 128 365 148T423 210T456 312Q432 305 406 302T350 297T286 295Q224 295 186 310T131
353T113 421Q113 431 114 442T117 465L134 571Q143 634 172 672T246 728T344 746H451ZM401 613H356Q334 613 318 606T292 583T277 542L269 493Q268 487 268 481T267 470Q267 450 276 440T303 425T348 421H473Q477 449 479 472T482 514Q482 551 473 573T446 604T401
613Z" />
<glyph unicode=":" horiz-adv-x="234" d="M74 -1Q56 -1 56 15Q56 16 56 17T56 19L73 121Q76 142 97 142H183Q201 142 201 127Q201 126 201 125T201 121L184 19Q183 7 176 3T160 -1H74ZM137 395Q119 395 119 411Q119 412 119 413T119 415L136 517Q139 538 160 538H246Q264
538 264 523Q264 522 264 521T264 517L247 415Q246 403 239 399T223 395H137Z" />
<glyph unicode=";" horiz-adv-x="234" d="M137 395Q119 395 119 411Q119 412 119 413T119 415L136 517Q139 538 160 538H246Q264 538 264 523Q264 522 264 521T264 517L247 415Q246 403 239 399T223 395H137ZM91 -89Q72 -89 59 -86T45 -83L52 -36Q66 -36 73 -32T82
-16L86 10H77Q59 10 59 28Q59 30 59 34T61 46L73 119Q75 142 98 142H182Q199 142 199 125Q199 123 199 118T197 105L177 -18Q172 -47 158 -63T127 -84T91 -89Z" />
<glyph unicode="&lt;" horiz-adv-x="609" d="M527 149L133 285L154 416L590 547L570 417L288 351L547 279L527 149Z" />
<glyph unicode="=" horiz-adv-x="609" d="M364 432L383 552H831L812 432H364ZM146 416L165 536H613L594 416H146Z" />
<glyph unicode="&gt;" horiz-adv-x="609" d="M122 149L142 279L425 352L165 417L185 547L579 416L559 285L122 149Z" />
<glyph unicode="?" horiz-adv-x="529" d="M181 203L212 401H281Q315 401 339 408T379 432T399 481L404 513Q405 520 405 526T406 537Q406 574 381 590T306 606Q263 606 221 597T134 573L151 682Q196 707 252 723T373 739Q467 739 513 695T560 580Q560 559 556
537L546 478Q532 385 473 337T305 289L292 203H181ZM164 -1Q146 -1 146 15Q146 16 146 17T146 19L162 121Q165 142 187 142H272Q290 142 290 127Q290 126 290 125T290 121L274 19Q272 7 266 3T249 -1H164Z" />
<glyph unicode="@" horiz-adv-x="931" d="M254 -194Q177 -194 132 -169T68 -101T49 -10Q49 4 50 17T53 46L129 521Q139 582 161 621T217 685T297 718T400 728H765Q830 728 871 705T933 641T954 546Q954 513 949 477L906 190Q899 147 883 113T839 53T772 14T682
0H591L567 56Q558 46 543 35T508 15T463 0T413 -6Q373 -6 339 13T285 74T264 186Q264 299 303 378T405 497T543 538Q607 538 656 520T741 471L684 99Q702 99 719 102T751 115T777 147T793 204L836 492Q838 504 839 514T840 535Q840 582 810 602T733 623H377Q327
623 299 604T258 554T239 492L166 31Q163 15 163 0Q163 -39 186 -64T264 -89H649L636 -171Q611 -176 567 -181T466 -190T345 -194H254ZM452 107Q485 107 519 118T579 153L618 412Q593 421 572 424T534 428Q487 428 452 400T397 322T377 202Q377 171 386 150T411
118T452 107Z" />
<glyph unicode="A" horiz-adv-x="696" d="M23 0L375 740H561L675 0H521L500 155H247L175 0H23ZM303 288H485L447 612L303 288Z" />
<glyph unicode="B" horiz-adv-x="635" d="M63 0L179 740H466Q540 740 581 721T639 667T656 588Q656 575 655 563T652 536Q644 480 608 439T516 385Q549 377 573 359T611 312T625 238Q625 228 624 214T619 176Q602 81 536 41T353 0H63ZM232 133H372Q408 133 430
143T465 173T483 225Q485 233 485 240T485 253Q485 287 464 304T400 322H262L232 133ZM279 436H417Q458 436 478 457T505 510Q507 522 508 531T510 548Q510 580 491 593T435 607H307L279 436Z" />
<glyph unicode="C" horiz-adv-x="591" d="M336 -6Q212 -6 153 60T94 245Q94 279 97 317T107 393Q125 509 162 587T262 706T419 746Q506 746 565 732T658 704L639 587Q596 598 546 605T445 613Q407 613 377 603T323 567T283 493T253 366Q248 332 245 300T241 244Q241
183 270 155T375 127Q442 127 484 130T568 139L549 23Q499 5 443 0T336 -6Z" />
<glyph unicode="D" horiz-adv-x="687" d="M62 0L179 740H460Q557 740 611 708T687 619T709 482Q709 450 706 416T697 347Q683 257 655 192T582 84T478 21T340 0H62ZM231 133H355Q398 133 430 149T486 195T525 270T549 372Q554 406 557 433T560 476Q560 523 547
551T504 593T423 607H306L231 133Z" />
<glyph unicode="E" horiz-adv-x="594" d="M242 -6Q214 -6 184 0T129 24T91 75T87 161L152 570Q162 635 190 672T260 724T350 740Q425 740 499 737T652 727L632 603H371Q336 603 318 586T294 533L279 437L556 428L537 311L258 303L242 200Q238 176 244 161T264
140T301 133H558L539 9Q468 3 395 -1T242 -6Z" />
<glyph unicode="F" horiz-adv-x="564" d="M62 0L152 572Q164 640 194 676T265 726T348 740Q434 740 506 737T650 727L631 603H370Q334 603 317 586T294 533L276 414L553 406L534 289L255 282L210 0H62Z" />
<glyph unicode="G" horiz-adv-x="658" d="M283 -6Q178 -6 135 50T91 227Q91 270 96 314T108 401Q127 515 167 592T272 708T431 747Q523 747 581 737T685 712L667 597Q634 603 580 608T448 614Q384 614 346 590T288 511T253 368Q241 287 241 239Q241 186 263 159T335
131Q354 131 375 133T418 138T457 145T485 152L508 297H375L394 414Q420 417 462 420T561 423Q577 423 598 423T638 422T670 421L604 0H492L480 50Q466 42 442 32T390 14T334 0T283 -6Z" />
<glyph unicode="H" horiz-adv-x="691" d="M62 0L179 740H327L278 432H557L606 740H754L637 0H489L536 299H257L210 0H62Z" />
<glyph unicode="I" horiz-adv-x="272" d="M62 0L179 740H327L210 0H62Z" />
<glyph unicode="J" horiz-adv-x="391" d="M150 -6Q118 -6 86 0T33 16L52 134Q70 131 89 130T125 129Q170 129 193 150T223 214L306 740H454L366 183Q350 81 299 38T150 -6Z" />
<glyph unicode="K" horiz-adv-x="641" d="M62 0L179 740H327L280 438H377L580 740H732L486 368L632 0H484L364 305H258L210 0H62Z" />
<glyph unicode="L" horiz-adv-x="532" d="M234 0Q167 0 127 32T87 134Q87 146 88 157T90 180L179 740H327L242 199Q241 194 241 190T240 180Q240 154 255 144T298 133H532L510 0H234Z" />
<glyph unicode="M" horiz-adv-x="869" d="M41 0L248 740H387L470 175L732 740H870L840 0H697L717 476L511 0H372L316 470L188 0H41Z" />
<glyph unicode="N" horiz-adv-x="693" d="M62 0L179 740H298L530 252L608 740H756L638 0H520L288 489L210 0H62Z" />
<glyph unicode="O" horiz-adv-x="697" d="M346 -6Q289 -6 242 3T161 38T109 109T91 228Q91 263 95 305T106 390Q123 494 151 563T222 672T325 729T467 746Q522 746 568 736T649 700T703 625T722 501Q722 469 718 427T706 341Q690 233 662 165T590 60T487 9T346
-6ZM370 128Q414 128 445 140T498 179T534 251T559 361Q565 402 569 438T573 499Q573 547 559 571T517 604T445 613Q403 613 372 602T318 565T281 491T254 370Q247 330 243 295T239 236Q239 193 252 170T295 137T370 128Z" />
<glyph unicode="P" horiz-adv-x="610" d="M62 0L179 740H474Q529 740 572 723T642 662T668 542Q668 527 665 505T659 464Q649 397 626 352T570 281T500 243T425 231Q377 231 329 236T250 248L210 0H62ZM268 364H405Q433 364 455 377T491 416T512 480Q514 494 515
507T517 527Q517 571 499 589T446 607H306L268 364Z" />
<glyph unicode="Q" horiz-adv-x="697" d="M495 -196Q445 -196 404 -180T339 -129T314 -39H416Q421 -68 439 -80T495 -92Q515 -92 536 -89T575 -81L558 -190Q532 -196 495 -196ZM346 -6Q289 -6 242 3T161 38T109 109T91 228Q91 263 95 305T106 390Q123 494 151
563T222 672T325 729T467 746Q522 746 568 736T649 700T703 625T722 501Q722 469 718 427T706 341Q690 233 662 165T590 60T487 9T346 -6ZM370 128Q414 128 445 140T498 179T534 251T559 361Q565 402 569 438T573 499Q573 547 559 571T517 604T445 613Q403 613
372 602T318 565T281 491T254 370Q247 330 243 295T239 236Q239 193 252 170T295 137T370 128Z" />
<glyph unicode="R" horiz-adv-x="633" d="M62 0L179 740H462Q507 740 544 730T607 699T648 642T662 556Q662 542 661 526T656 492Q649 439 632 404T592 348T548 316T510 298L600 0H449L374 275Q362 275 347 275T315 275T283 275T254 276L210 0H62ZM272 393H397Q430
393 452 403T487 436T507 502Q509 511 509 519T510 535Q510 562 501 577T474 600T432 607H306L272 393Z" />
<glyph unicode="S" horiz-adv-x="573" d="M306 -6Q253 -6 208 -3T126 6T62 18L80 135Q125 132 185 130T303 127Q345 127 373 133T417 155T437 200L441 226Q442 232 442 236T443 246Q443 274 423 286T359 298H300Q215 298 169 340T123 454Q123 474 126 496L136
556Q147 627 181 669T271 728T400 746Q424 746 452 745T509 740T568 732T626 721L607 604Q573 607 532 608T452 611T382 612Q352 612 330 606T293 584T274 539L270 513Q269 507 269 502T268 491Q268 463 284 451T335 438H398Q492 438 539 395T587 282Q587 264 584
242L574 173Q564 111 534 72T449 13T306 -6Z" />
<glyph unicode="T" horiz-adv-x="609" d="M225 0L321 607H119L140 740H694L673 607H470L374 0H225Z" />
<glyph unicode="U" horiz-adv-x="688" d="M345 -6Q226 -6 165 46T103 217Q103 243 106 275T116 342L179 740H327L261 320Q257 295 254 272T251 229Q251 176 278 152T365 127Q399 127 425 135T471 163T505 222T529 320L596 740H744L674 298Q658 201 630 141T562
49T467 6T345 -6Z" />
<glyph unicode="V" horiz-adv-x="697" d="M254 0L140 740H293L373 161L639 740H792L440 0H254Z" />
<glyph unicode="W" horiz-adv-x="1031" d="M210 0L141 740H294L339 220L551 740H687L730 220L943 740H1097L790 0H639L584 521L361 0H210Z" />
<glyph unicode="X" horiz-adv-x="655" d="M480 0L333 318L132 740H294L445 413L641 0H480ZM19 0L330 406L387 279L184 0H19ZM444 326L387 451L599 740H764L444 326Z" />
<glyph unicode="Y" horiz-adv-x="641" d="M239 0L274 216L133 740H294L372 377L575 740H743L422 216L388 0H239Z" />
<glyph unicode="Z" horiz-adv-x="568" d="M34 0L54 126L450 607H130L151 740H641L621 614L226 133H555L534 0H34Z" />
<glyph unicode="[" horiz-adv-x="339" d="M213 -210Q152 -210 119 -188T73 -132T60 -60Q60 -45 62 -30T66 -1L168 648Q175 691 190 726T230 787T292 827T379 842H458L440 723H404Q371 723 347 702T314 626L215 6Q214 -2 213 -10T212 -25Q212 -59 228 -75T275 -91H310L292
-210H213Z" />
<glyph unicode="\" horiz-adv-x="462" d="M285 -72L137 770H288L436 -72H285Z" />
<glyph unicode="]" horiz-adv-x="339" d="M-18 -210L1 -91H36Q61 -91 79 -81T110 -49T127 6L226 626Q227 635 227 642T228 657Q228 693 211 708T165 723H130L148 842H228Q283 842 317 825T366 777T382 702Q382 689 381 676T377 648L274 -1Q269 -34 257 -70T221
-138T159 -190T62 -210H-18Z" />
<glyph unicode="^" horiz-adv-x="386" d="M123 531L253 668H354L431 531H345L290 599L209 531H123Z" />
<glyph unicode="_" horiz-adv-x="609" d="M-30 -192L-12 -73H597L579 -192H-30Z" />
<glyph unicode="`" horiz-adv-x="232" d="M230 631L138 771H257L317 631H230Z" />
<glyph unicode="a" horiz-adv-x="571" d="M218 -6Q178 -6 145 13T92 73T72 179Q72 208 76 239T84 291Q97 376 131 431T223 515T368 543Q413 543 456 535T535 513T594 480L518 0H387L379 54Q365 42 339 28T282 4T218 -6ZM290 113Q323 113 348 125T393 150L434 408Q426
413 407 418T360 424Q320 424 294 407T252 358T229 280Q225 257 223 238T221 206Q221 165 238 139T290 113Z" />
<glyph unicode="b" horiz-adv-x="581" d="M372 -6Q341 -6 311 1T256 22T211 51L185 0H54L175 763H323L282 503Q317 522 356 532T424 543Q502 543 547 494T593 355Q593 332 589 300T580 231Q568 156 540 103T470 22T372 -6ZM326 113Q371 113 398 149T439 270Q442
288 443 303T444 332Q444 384 424 404T375 424Q349 424 320 417T265 397L226 145Q244 131 267 122T326 113Z" />
<glyph unicode="c" horiz-adv-x="475" d="M271 -6Q212 -6 168 12T99 75T75 198Q75 215 78 240T85 293Q99 385 133 439T219 518T334 543Q378 543 426 535T518 515L504 429H368Q327 429 300 412T256 359T229 268Q226 248 225 234T223 211Q223 173 234 150T266 117T319
106H462L449 22Q415 10 373 2T271 -6Z" />
<glyph unicode="d" horiz-adv-x="575" d="M225 -6Q152 -6 114 43T75 180Q75 236 86 294Q101 371 128 427T209 513T356 543Q383 543 408 540T456 529L493 763H641L520 0H389L380 54Q361 38 336 25T283 3T225 -6ZM291 113Q323 113 348 124T396 150L437 408Q423 415
405 419T362 424Q328 424 302 411T258 365T229 269Q226 252 224 236T222 205Q222 170 231 150T256 122T291 113Z" />
<glyph unicode="e" horiz-adv-x="548" d="M288 -6Q210 -6 164 17T96 86T75 194Q75 222 78 247T85 297Q99 385 134 439T228 518T366 544Q405 544 442 537T507 513T553 464T570 384Q570 328 552 292T502 237T427 210T338 202Q301 202 271 205T223 213Q222 205 222
196T221 177Q221 139 250 121T346 103H519L505 16Q465 8 408 1T288 -6ZM300 285Q346 285 375 293T418 320T432 368Q432 400 413 415T356 431Q318 431 294 415T255 368T233 291Q247 289 264 287T300 285Z" />
<glyph unicode="f" horiz-adv-x="390" d="M91 0L157 418H82L97 513L175 537L189 616Q195 654 209 682T246 730T303 759T383 769Q418 769 450 767T504 760L487 651H410Q383 651 366 643T341 619T329 575L324 537H454L435 418H305L239 0H91Z" />
<glyph unicode="g" horiz-adv-x="576" d="M169 -233L36 -224L52 -122H221Q260 -122 290 -115T340 -88T365 -35L380 54Q360 37 332 24T273 2T214 -6Q167 -6 136 19T89 86T74 178Q74 204 78 238T86 303Q97 372 122 418T185 492T268 531T367 543Q443 543 503 532T600
510L510 -58Q501 -112 475 -149T406 -206T304 -233T169 -233ZM289 113Q319 113 344 123T394 150L437 417Q418 420 399 421T360 424Q327 425 301 411T258 367T231 286Q226 255 224 239T222 203Q222 158 240 136T289 113Z" />
<glyph unicode="h" horiz-adv-x="590" d="M54 0L175 763H323L278 482Q310 507 358 525T465 544Q530 544 564 512T599 410Q599 383 593 348L538 0H390L442 330Q443 337 443 342T443 353Q443 386 426 398T382 411Q346 411 317 399T260 366L202 0H54Z" />
<glyph unicode="i" horiz-adv-x="254" d="M169 616Q160 616 155 621T152 636L167 734Q171 755 191 755H305Q315 755 318 749T321 734L306 636Q302 616 283 616H169ZM54 0L138 537H287L202 0H54Z" />
<glyph unicode="j" horiz-adv-x="254" d="M169 616Q160 616 155 621T152 636L167 734Q171 755 191 755H305Q315 755 318 749T321 734L306 636Q302 616 283 616H169ZM16 -237L138 537H287L201 -4Q191 -65 170 -125T125 -237H16Z" />
<glyph unicode="k" horiz-adv-x="563" d="M54 0L175 763H323L257 347Q304 356 341 378T405 439T447 537H596Q576 463 548 415T487 337T424 290L565 0H413L300 245Q286 241 269 239T239 236L202 0H54Z" />
<glyph unicode="l" horiz-adv-x="322" d="M240 0Q160 0 120 33T79 120Q79 139 80 155T83 186L175 763H323L239 237Q238 230 236 216T233 188T231 164Q231 136 244 126T283 113L321 107L304 0H240Z" />
<glyph unicode="m" horiz-adv-x="927" d="M54 0L138 537H261L278 482Q315 508 359 526T465 544Q513 544 544 525T594 465Q640 506 693 525T792 544Q869 544 901 510T934 415Q934 395 933 375T927 335L874 0H726L778 331Q779 336 779 341T780 352Q780 411 714 411Q681
411 652 398T593 363Q593 356 593 347T590 327L538 0H390L442 328Q443 336 443 341T444 353Q444 382 428 396T379 411Q340 411 313 398T260 366L202 0H54Z" />
<glyph unicode="n" horiz-adv-x="590" d="M54 0L138 537H261L278 482Q313 508 359 526T463 544Q508 544 538 528T583 485T599 423Q599 406 598 384T587 312L538 0H390L438 307Q441 328 442 338T444 354Q444 380 429 395T379 411Q345 411 316 399T260 366L202 0H54Z" />
<glyph unicode="o" horiz-adv-x="574" d="M286 -6Q217 -6 170 15T99 77T75 181Q75 210 77 234T83 283Q96 363 118 414T175 493T258 532T372 543Q457 543 503 522T566 457T583 347Q583 323 581 296T574 239Q559 142 524 88T431 14T286 -6ZM302 113Q331 113 351
119T385 141T408 186T426 261Q430 289 432 311T435 354Q435 394 416 410T353 427Q323 427 303 420T269 395T246 344T228 261Q225 240 224 222T222 188Q222 158 231 142T258 120T302 113Z" />
<glyph unicode="p" horiz-adv-x="572" d="M16 -237L135 516Q203 528 267 535T405 543Q501 543 541 495T582 351Q582 326 580 299T572 244Q559 159 525 104T439 22T322 -6Q288 -6 257 -1T204 15L164 -237H16ZM305 120Q341 120 366 135T406 185T431 272Q433 286
434 299T436 326Q436 376 419 400T364 424L268 423L222 134Q236 129 248 126T274 122T305 120Z" />
<glyph unicode="q" horiz-adv-x="570" d="M332 -237L378 54Q347 28 303 11T215 -6Q143 -6 109 41T74 176Q74 202 77 229T84 286Q95 359 119 409T180 488T261 530T362 543Q432 543 497 534T599 510L480 -237H332ZM287 113Q317 113 343 124T393 150L436 417Q417
420 400 421T365 424Q321 425 294 409T252 359T228 275Q224 253 222 235T220 204Q220 159 238 136T287 113Z" />
<glyph unicode="r" horiz-adv-x="419" d="M54 0L139 537H271L277 468Q305 498 341 520T424 543Q440 543 453 542T478 537L455 389Q441 390 425 390T393 391Q349 391 315 378T258 348L203 0H54Z" />
<glyph unicode="s" horiz-adv-x="512" d="M266 -6Q233 -6 203 -5T145 0T94 8T52 18L66 105H300Q326 105 342 115T363 144L366 166Q367 171 367 173T367 178Q367 208 325 208H245Q201 208 166 219T112 255T92 317Q92 327 93 338T96 362L102 400Q110 442 132 474T200
524T323 543Q355 543 392 540T466 531T528 518L513 431H294Q265 431 252 422T234 390L231 375Q229 368 229 363T228 354Q228 341 238 334T274 327H364Q428 327 466 299T505 220Q505 210 505 199T502 177L495 130Q483 55 423 25T266 -6Z" />
<glyph unicode="t" horiz-adv-x="408" d="M281 0Q200 0 160 30T119 122Q119 140 121 163T128 215L165 418H82L97 513L189 537L233 687H350L326 537H452L434 418H307L275 214Q273 205 271 190T268 163Q268 139 280 129T319 116L380 110L362 0H281Z" />
<glyph unicode="u" horiz-adv-x="590" d="M209 -6Q139 -6 108 27T76 120Q76 141 77 156T81 185L137 537H285L233 203Q232 198 232 193T231 181Q231 152 248 140T294 127Q331 127 359 139T415 171L473 537H621L537 0H405L397 55Q369 36 342 22T283 1T209 -6Z" />
<glyph unicode="v" horiz-adv-x="549" d="M178 0L83 537H235L288 139L407 391Q424 429 434 464T450 545H586Q585 488 564 433T518 328L349 0H178Z" />
<glyph unicode="w" horiz-adv-x="850" d="M169 0L83 537H235L281 139L442 537H539L609 139L708 408Q713 422 720 445T733 496T742 545H886Q886 513 878 478T859 410T836 353L670 0H513L456 296L326 0H169Z" />
<glyph unicode="x" horiz-adv-x="556" d="M397 0L269 220L84 537H236L378 294L549 0H397ZM8 0L267 308L307 174L160 0H8ZM369 217L316 338L466 537H625L369 217Z" />
<glyph unicode="y" horiz-adv-x="575" d="M96 -237V-132Q157 -119 203 -90T278 0Q231 4 202 20T157 67T137 144L91 537H244L268 175Q270 154 278 143T299 127T324 121L442 410Q454 440 463 475T474 545H613Q613 491 599 433T553 308L411 8Q370 -80 323 -131T221
-206T96 -237Z" />
<glyph unicode="z" horiz-adv-x="501" d="M40 0L57 107L355 418H94L113 537H544L528 430L230 119H484Q484 119 483 107T478 77T472 42T467 12T465 0H40Z" />
<glyph unicode="{" horiz-adv-x="317" d="M285 -210Q213 -210 170 -196T108 -154T89 -84Q89 -67 93 -34T104 38T117 116T128 182T133 217Q133 243 120 254T73 265L95 402Q112 404 128 409T157 426T172 460L203 656Q214 726 243 767T323 825T452 842L432 723Q405
723 389 715T362 686T346 625L317 435Q309 385 279 362T202 334Q242 326 264 305T286 251Q286 242 283 220T275 168T265 104T254 41T246 -12T243 -42Q243 -72 257 -85T302 -99L285 -210Z" />
<glyph unicode="|" horiz-adv-x="251" d="M55 -72L188 770H307L174 -72H55Z" />
<glyph unicode="}" horiz-adv-x="317" d="M-18 -210L0 -99Q29 -99 46 -89T71 -59T84 -13L121 216Q128 256 157 281T234 314Q196 317 173 335T150 392Q150 403 154 431T163 496T174 569T184 632T188 666Q188 700 174 711T130 723L149 842Q216 842 259 825T321 776T341
699Q341 696 339 676T332 627T322 566T313 505T306 456T303 430Q303 412 311 402T334 388T363 382L341 245Q312 245 292 232T265 187L230 -38Q222 -85 206 -118T162 -171T90 -200T-18 -210Z" />
<glyph unicode="~" horiz-adv-x="423" d="M358 534Q342 534 328 541T301 556T275 572T247 579Q218 579 195 569T145 540L133 591Q157 617 190 639T262 661Q277 661 291 654T319 638T345 623T370 616Q390 616 407 622T440 639T468 659L480 603Q457 578 426 556T358 534Z" />
<glyph unicode="&#xa0;" horiz-adv-x="246" />
<glyph unicode="&#xa1;" horiz-adv-x="272" d="M246 337L179 -199H31L137 337H246ZM266 541Q284 541 284 525Q284 524 284 523T284 521L267 419Q264 398 243 398H157Q139 398 139 413Q139 414 139 415T139 419L156 521Q157 533 164 537T180 541H266Z" />
<glyph unicode="&#xa2;" horiz-adv-x="486" d="M208 -92L222 -5Q177 -1 141 16T85 73T64 190Q64 269 83 332T136 440T214 510T311 536L325 630H409L394 534Q426 532 460 524T528 503L514 416Q503 418 462 421T359 425Q323 425 296 407T251 358T223 284T214 193Q214
158 224 139T255 113T307 106Q351 106 385 108T441 113T473 118L459 31Q420 12 383 5T306 -5L292 -92H208Z" />
<glyph unicode="&#xa3;" horiz-adv-x="609" d="M58 0L76 113L172 133L200 316L109 326L121 400L218 420L229 496Q243 587 278 641T370 720T510 744Q560 744 601 740T671 731L652 612H495Q461 612 438 604T401 575T380 512L366 420L546 407L533 326L349 316L320
133H580L559 0H58Z" />
<glyph unicode="&#xa4;" horiz-adv-x="609" d="M338 179Q294 179 259 200T204 256T183 334Q183 387 209 432T281 505T384 533Q428 533 463 512T519 456T540 378Q540 326 514 280T442 207T338 179ZM145 117L94 178L219 286L275 225L145 117ZM501 117L412 223L483
284L572 178L501 117ZM345 254Q378 254 405 268T448 308T464 372Q464 408 440 433T377 458Q344 458 318 444T276 403T260 340Q260 305 284 280T345 254ZM237 430L150 534L221 595L309 491L237 430ZM505 428L454 489L577 595L628 534L505 428Z" />
<glyph unicode="&#xa5;" horiz-adv-x="609" d="M108 261L120 336H573L561 261H108ZM87 122L99 197H551L539 122H87ZM220 0L254 216L113 740H275L352 377L556 740H724L402 216L368 0H220Z" />
<glyph unicode="&#xa6;" horiz-adv-x="251" d="M134 429L188 770H307L253 429H134ZM55 -72L107 256H226L174 -72H55Z" />
<glyph unicode="&#xa7;" horiz-adv-x="539" d="M314 -6Q288 -6 257 -6T194 -4T133 1T81 8L97 113H302Q329 113 343 117T365 130T373 152Q377 170 378 180T380 194Q380 206 371 210T334 215H236Q168 215 130 235T91 305Q91 311 91 318T93 335L99 371Q107 415 127
437T187 472Q161 485 151 506T141 554Q141 563 141 572T143 592L152 644Q159 686 182 717T247 766T353 784Q377 784 408 783T472 780T534 776T582 768L566 665H357Q336 665 322 661T300 647T289 621Q287 605 286 597T284 586Q284 571 294 566T328 560H430Q503 560
538 539T574 470Q574 457 571 441L564 401Q559 367 539 341T480 302Q505 294 517 275T529 228Q529 221 528 213T525 192L517 147Q508 88 481 55T411 8T314 -6ZM290 326H352Q376 326 389 328T408 340T418 369L424 406Q425 410 425 412T425 418Q425 434 414 441T377
448H309Q277 448 264 438T246 404L240 368Q240 366 240 364T239 359Q239 343 251 335T290 326Z" />
<glyph unicode="&#xa8;" horiz-adv-x="399" d="M360 637Q343 637 343 654Q343 655 343 659T347 685T359 755Q362 777 382 777H451Q468 777 468 760Q468 760 468 755T464 729T452 658Q450 637 429 637H360ZM160 637Q143 637 143 654Q143 655 143 659T147 685T159
755Q162 777 182 777H251Q268 777 268 760Q268 760 268 755T264 729T252 658Q250 637 229 637H160Z" />
<glyph unicode="&#xa9;" horiz-adv-x="811" d="M332 0Q273 0 229 20T154 76T108 160T92 264Q92 327 103 393T140 520T204 628T298 704T426 732H619Q694 732 743 703T816 621T841 502Q841 405 817 315T750 154T650 41T525 0H332ZM399 147Q365 147 336 159T288 202T270
292Q270 347 285 399T327 492T390 558T469 583Q489 583 518 581T580 575T637 561L626 491Q598 495 572 497T524 501T486 503Q455 503 431 487T391 444T367 382T359 312Q359 267 378 247T440 227Q485 227 523 232T592 243L582 173Q538 155 493 151T399 147ZM322
80H530Q574 80 615 110T688 195T740 325T759 489Q759 535 746 572T705 630T628 652H413Q360 652 316 622T240 540T191 420T173 277Q173 234 181 199T208 136T255 95T322 80Z" />
<glyph unicode="&#xaa;" horiz-adv-x="410" d="M71 254L82 324H438L427 254H71ZM202 356Q159 356 127 388T95 492Q95 513 98 536T104 575Q118 665 168 710T316 756Q369 756 415 743T489 709L434 360H324L316 399Q306 389 288 380T247 363T202 356ZM263 458Q284
458 300 465T329 481L356 647Q349 649 337 651T309 654Q283 654 267 644T241 614T226 567Q218 535 218 512Q218 490 228 474T263 458Z" />
<glyph unicode="&#xab;" horiz-adv-x="620" d="M264 60L74 282L329 500L392 426L223 282L348 135L264 60ZM514 60L324 282L579 500L642 426L473 282L598 135L514 60Z" />
<glyph unicode="&#xac;" horiz-adv-x="609" d="M437 176L484 473H603L556 176H437ZM146 416L165 536H613L594 416H146Z" />
<glyph unicode="&#xad;" horiz-adv-x="347" d="M58 230L76 350H382L364 230H58Z" />
<glyph unicode="&#xae;" horiz-adv-x="811" d="M332 0Q273 0 229 20T154 76T108 160T92 264Q92 327 103 393T140 520T204 628T298 704T426 732H619Q694 732 743 703T816 621T841 502Q841 405 817 315T750 154T650 41T525 0H332ZM274 153L342 580H526Q555 580 581
572T623 543T639 480Q639 445 627 411T593 353T540 320L604 153H517L458 323L388 324L361 153H274ZM322 80H530Q574 80 615 110T688 195T740 325T759 489Q759 535 746 572T705 630T628 652H413Q360 652 316 622T240 540T191 420T173 277Q173 234 181 199T208 136T255
95T322 80ZM398 388H494Q510 388 522 399T542 427T550 463Q550 484 540 492T512 500H416L398 388Z" />
<glyph unicode="&#xaf;" horiz-adv-x="358" d="M141 647L155 735H436L422 647H141Z" />
<glyph unicode="&#xb0;" horiz-adv-x="318" d="M236 481Q181 481 147 515T112 606Q112 649 131 686T188 746T282 770Q338 770 371 736T404 645Q404 601 386 564T331 504T236 481ZM246 548Q286 548 311 573T336 640Q336 668 319 685T271 702Q231 702 206 676T180
610Q180 582 198 565T246 548Z" />
<glyph unicode="&#xb1;" horiz-adv-x="609" d="M95 96L114 216H562L543 96H95ZM290 282L360 730H479L409 282H290ZM151 446L170 566H618L599 446H151Z" />
<glyph unicode="&#xb2;" horiz-adv-x="416" d="M98 355L113 447L288 604Q321 635 337 660T354 703Q354 720 343 728T303 736H168L183 828Q215 834 255 840T344 846Q418 846 448 821T479 747Q479 696 456 649T370 546L273 459H451L434 355H98Z" />
<glyph unicode="&#xb3;" horiz-adv-x="416" d="M289 351Q235 351 186 355T97 368L112 461H260Q287 461 302 464T326 474T336 494L339 509Q339 512 339 513T339 517Q339 528 333 535T315 546T289 550L169 555L183 645L299 651Q327 653 342 660T361 683L363 700Q363
702 363 703T363 707Q363 722 349 729T301 736H163L178 829Q224 836 271 841T366 846Q423 846 454 822T487 750Q487 744 487 738T485 723L479 689Q476 666 467 648T442 618T406 600Q422 595 433 584T451 558T457 521Q457 515 457 508T454 493L450 470Q441 411 399
381T289 351Z" />
<glyph unicode="&#xb4;" horiz-adv-x="232" d="M115 631L213 771H340L210 631H115Z" />
<glyph unicode="&#xb5;" horiz-adv-x="595" d="M262 -6Q230 -6 198 4T140 35T98 85T82 153Q82 162 83 170T85 188L140 537H288L235 201Q235 196 235 191T234 180Q234 148 252 137T301 125Q335 125 363 135T417 164L476 537H624L540 0H417L407 55Q378 27 343 11T262
-6ZM12 -269L94 245H242L161 -269H12Z" />
<glyph unicode="&#xb6;" horiz-adv-x="573" d="M206 -270L300 321Q291 316 272 311T225 305Q158 305 128 339T97 422Q97 430 98 439T102 466L123 600Q131 648 156 679T220 725T304 740H691L675 641H615L513 0H416L518 643H448L303 -270H206ZM257 403H312L350 643H296Q258
643 240 627T216 575L201 479Q199 468 198 461T197 449Q197 429 205 419T228 406T257 403Z" />
<glyph unicode="&#xb7;" horiz-adv-x="263" d="M128 321Q119 321 114 326T110 341L124 430Q127 451 148 451H234Q256 451 252 430L238 341Q236 330 230 326T214 321H128Z" />
<glyph unicode="&#xb8;" horiz-adv-x="246" d="M8 -198L17 -137L36 -134Q53 -132 63 -125T77 -110T82 -94Q82 -84 74 -76T42 -64L103 -50Q135 -50 155 -64T176 -111Q176 -132 164 -152T125 -185T56 -198H8ZM42 -64L106 17H173L109 -64H42Z" />
<glyph unicode="&#xb9;" horiz-adv-x="416" d="M213 355L275 742L177 732L189 806L304 846H410L332 355H213ZM110 355L127 459H451L434 355H110Z" />
<glyph unicode="&#xba;" horiz-adv-x="427" d="M71 254L82 324H438L427 254H71ZM258 356Q204 356 169 371T116 417T97 493Q97 515 99 533T103 568Q116 647 141 687T211 742T320 756Q386 756 420 741T467 693T480 611Q480 594 479 574T473 533Q462 461 436 423T366
370T258 356ZM271 458Q296 458 311 465T335 493T351 550Q354 571 355 585T356 614Q355 637 344 647T303 657Q278 657 263 649T240 619T225 560Q222 538 222 526T221 501Q222 485 227 476T243 462T271 458Z" />
<glyph unicode="&#xbb;" horiz-adv-x="620" d="M117 60L57 136L227 281L103 427L189 500L377 281L117 60ZM367 60L307 136L477 281L353 427L439 500L627 281L367 60Z" />
<glyph unicode="&#xbc;" horiz-adv-x="1154" d="M305 0L798 770H899L406 0H305ZM945 -55L961 40H750L737 93L942 432H1063L886 138H976L989 219L1021 279H1117L1095 138H1140L1126 58L1080 40L1064 -55H945ZM216 355L278 742L180 732L192 806L307 846H413L335
355H216ZM113 355L130 459H454L437 355H113Z" />
<glyph unicode="&#xbd;" horiz-adv-x="1154" d="M305 0L798 770H899L406 0H305ZM758 -55L773 37L948 194Q981 225 997 250T1014 293Q1014 310 1003 318T963 326H828L843 418Q875 424 915 430T1004 436Q1078 436 1108 411T1139 337Q1139 286 1116 239T1030 136L933
49H1111L1094 -55H758ZM216 355L278 742L180 732L192 806L307 846H413L335 355H216ZM113 355L130 459H454L437 355H113Z" />
<glyph unicode="&#xbe;" horiz-adv-x="1153" d="M305 0L798 770H899L406 0H305ZM945 -48L961 47H750L737 100L942 439H1063L886 145H976L989 226L1021 286H1117L1095 145H1140L1126 65L1080 47L1064 -48H945ZM299 351Q245 351 196 355T107 368L122 461H270Q297
461 312 464T336 474T346 494L349 509Q349 512 349 513T349 517Q349 528 343 535T325 546T299 550L179 555L193 645L309 651Q337 653 352 660T371 683L373 700Q373 702 373 703T373 707Q373 722 359 729T311 736H173L188 829Q234 836 281 841T376 846Q433 846 464
822T497 750Q497 744 497 738T495 723L489 689Q486 666 477 648T452 618T416 600Q432 595 443 584T461 558T467 521Q467 515 467 508T464 493L460 470Q451 411 409 381T299 351Z" />
<glyph unicode="&#xbf;" horiz-adv-x="529" d="M429 337L398 139H329Q295 139 271 132T231 108T211 59L206 27Q205 20 205 14T204 3Q204 -34 229 -50T304 -66Q347 -66 389 -57T476 -33L459 -142Q414 -167 358 -183T237 -199Q143 -199 97 -155T50 -40Q50 -19 54
3L64 62Q78 155 137 203T305 251L318 337H429ZM446 541Q464 541 464 525Q464 524 464 523T464 521L448 419Q445 398 423 398H338Q320 398 320 413Q320 414 320 415T320 419L336 521Q338 533 344 537T361 541H446Z" />
<glyph unicode="&#xc0;" horiz-adv-x="696" d="M23 0L375 740H561L675 0H521L500 155H247L175 0H23ZM303 288H485L447 612L303 288ZM445 791L353 931H472L532 791H445Z" />
<glyph unicode="&#xc1;" horiz-adv-x="696" d="M23 0L375 740H561L675 0H521L500 155H247L175 0H23ZM303 288H485L447 612L303 288ZM416 791L514 931H641L511 791H416Z" />
<glyph unicode="&#xc2;" horiz-adv-x="696" d="M23 0L375 740H561L675 0H521L500 155H247L175 0H23ZM303 288H485L447 612L303 288ZM306 791L437 933H538L614 791H528L475 867L392 791H306Z" />
<glyph unicode="&#xc3;" horiz-adv-x="696" d="M23 0L375 740H561L675 0H521L500 155H247L175 0H23ZM303 288H485L447 612L303 288ZM290 795Q307 865 340 892T414 919Q437 919 456 913T493 898T525 884T556 878Q576 878 588 890T604 924H678Q662 857 633 827T555
796Q534 796 514 802T476 816T442 830T412 837Q393 837 381 825T364 795H290Z" />
<glyph unicode="&#xc4;" horiz-adv-x="696" d="M23 0L375 740H561L675 0H521L500 155H247L175 0H23ZM303 288H485L447 612L303 288ZM529 797Q512 797 512 814Q512 815 512 819T516 845T528 915Q531 937 551 937H620Q637 937 637 920Q637 920 637 915T633 889T621
818Q619 797 598 797H529ZM329 797Q312 797 312 814Q312 815 312 819T316 845T328 915Q331 937 351 937H420Q437 937 437 920Q437 920 437 915T433 889T421 818Q419 797 398 797H329Z" />
<glyph unicode="&#xc5;" horiz-adv-x="696" d="M23 0L375 740H561L675 0H521L500 155H247L175 0H23ZM303 288H485L447 612L303 288ZM471 765Q419 765 389 787T359 863Q359 899 375 928T423 974T500 992Q553 992 582 970T611 895Q611 841 576 803T471 765ZM478
820Q511 820 526 841T541 892Q541 918 528 928T494 938Q460 938 444 916T428 865Q428 840 442 830T478 820Z" />
<glyph unicode="&#xc6;" horiz-adv-x="980" d="M646 -5Q608 -5 578 -1T526 17T495 52T487 108L492 154H275L159 0H12L409 562Q460 636 516 674T633 726T760 740Q817 740 893 737T1049 727L1029 603H768Q742 603 727 599T703 585T691 560T684 522L670 435L954 427L936
310L649 302L633 200Q628 168 639 154T668 137T705 134H955L935 11Q906 8 870 5T798 1T729 -2T675 -4T646 -5ZM361 280H512L557 563L361 280Z" />
<glyph unicode="&#xc7;" horiz-adv-x="591" d="M336 -6Q212 -6 153 60T94 245Q94 279 97 317T107 393Q125 509 162 587T262 706T419 746Q506 746 565 732T658 704L639 587Q596 598 546 605T445 613Q407 613 377 603T323 567T283 493T253 366Q248 332 245 300T241
244Q241 183 270 155T375 127Q442 127 484 130T568 139L549 23Q499 5 443 0T336 -6ZM458 -201L467 -140L486 -137Q503 -135 513 -128T527 -113T532 -97Q532 -87 524 -79T492 -67L553 -53Q585 -53 605 -67T626 -114Q626 -135 614 -155T575 -188T506 -201H458ZM492
-67L556 14H623L559 -67H492Z" />
<glyph unicode="&#xc8;" horiz-adv-x="594" d="M242 -6Q214 -6 184 0T129 24T91 75T87 161L152 570Q162 635 190 672T260 724T350 740Q425 740 499 737T652 727L632 603H371Q336 603 318 586T294 533L279 437L556 428L537 311L258 303L242 200Q238 176 244 161T264
140T301 133H558L539 9Q468 3 395 -1T242 -6ZM401 791L309 931H428L488 791H401Z" />
<glyph unicode="&#xc9;" horiz-adv-x="594" d="M242 -6Q214 -6 184 0T129 24T91 75T87 161L152 570Q162 635 190 672T260 724T350 740Q425 740 499 737T652 727L632 603H371Q336 603 318 586T294 533L279 437L556 428L537 311L258 303L242 200Q238 176 244 161T264
140T301 133H558L539 9Q468 3 395 -1T242 -6ZM372 791L470 931H597L467 791H372Z" />
<glyph unicode="&#xca;" horiz-adv-x="594" d="M242 -6Q214 -6 184 0T129 24T91 75T87 161L152 570Q162 635 190 672T260 724T350 740Q425 740 499 737T652 727L632 603H371Q336 603 318 586T294 533L279 437L556 428L537 311L258 303L242 200Q238 176 244 161T264
140T301 133H558L539 9Q468 3 395 -1T242 -6ZM262 791L393 933H494L570 791H484L431 867L348 791H262Z" />
<glyph unicode="&#xcb;" horiz-adv-x="594" d="M242 -6Q214 -6 184 0T129 24T91 75T87 161L152 570Q162 635 190 672T260 724T350 740Q425 740 499 737T652 727L632 603H371Q336 603 318 586T294 533L279 437L556 428L537 311L258 303L242 200Q238 176 244 161T264
140T301 133H558L539 9Q468 3 395 -1T242 -6ZM485 797Q468 797 468 814Q468 815 468 819T472 845T484 915Q487 937 507 937H576Q593 937 593 920Q593 920 593 915T589 889T577 818Q575 797 554 797H485ZM285 797Q268 797 268 814Q268 815 268 819T272 845T284 915Q287
937 307 937H376Q393 937 393 920Q393 920 393 915T389 889T377 818Q375 797 354 797H285Z" />
<glyph unicode="&#xcc;" horiz-adv-x="272" d="M62 0L179 740H327L210 0H62ZM235 791L143 931H262L322 791H235Z" />
<glyph unicode="&#xcd;" horiz-adv-x="272" d="M62 0L179 740H327L210 0H62ZM206 791L304 931H431L301 791H206Z" />
<glyph unicode="&#xce;" horiz-adv-x="272" d="M62 0L179 740H327L210 0H62ZM96 791L227 933H328L404 791H318L265 867L182 791H96Z" />
<glyph unicode="&#xcf;" horiz-adv-x="272" d="M62 0L179 740H327L210 0H62ZM319 797Q302 797 302 814Q302 815 302 819T306 845T318 915Q321 937 341 937H410Q427 937 427 920Q427 920 427 915T423 889T411 818Q409 797 388 797H319ZM119 797Q102 797 102 814Q102
815 102 819T106 845T118 915Q121 937 141 937H210Q227 937 227 920Q227 920 227 915T223 889T211 818Q209 797 188 797H119Z" />
<glyph unicode="&#xd0;" horiz-adv-x="687" d="M56 325L72 421H396L380 325H56ZM62 0L179 740H460Q557 740 611 708T687 619T709 482Q709 450 706 416T697 347Q683 257 655 192T582 84T478 21T340 0H62ZM231 133H355Q398 133 430 149T486 195T525 270T549 372Q554
406 557 433T560 476Q560 523 547 551T504 593T423 607H306L231 133Z" />
<glyph unicode="&#xd1;" horiz-adv-x="693" d="M62 0L179 740H298L530 252L608 740H756L638 0H520L288 489L210 0H62ZM275 795Q292 865 325 892T399 919Q422 919 441 913T478 898T510 884T541 878Q561 878 573 890T589 924H663Q647 857 618 827T540 796Q519 796
499 802T461 816T427 830T397 837Q378 837 366 825T349 795H275Z" />
<glyph unicode="&#xd2;" horiz-adv-x="697" d="M346 -6Q289 -6 242 3T161 38T109 109T91 228Q91 263 95 305T106 390Q123 494 151 563T222 672T325 729T467 746Q522 746 568 736T649 700T703 625T722 501Q722 469 718 427T706 341Q690 233 662 165T590 60T487
9T346 -6ZM370 128Q414 128 445 140T498 179T534 251T559 361Q565 402 569 438T573 499Q573 547 559 571T517 604T445 613Q403 613 372 602T318 565T281 491T254 370Q247 330 243 295T239 236Q239 193 252 170T295 137T370 128ZM449 791L357 931H476L536 791H449Z"
/>
<glyph unicode="&#xd3;" horiz-adv-x="697" d="M346 -6Q289 -6 242 3T161 38T109 109T91 228Q91 263 95 305T106 390Q123 494 151 563T222 672T325 729T467 746Q522 746 568 736T649 700T703 625T722 501Q722 469 718 427T706 341Q690 233 662 165T590 60T487
9T346 -6ZM370 128Q414 128 445 140T498 179T534 251T559 361Q565 402 569 438T573 499Q573 547 559 571T517 604T445 613Q403 613 372 602T318 565T281 491T254 370Q247 330 243 295T239 236Q239 193 252 170T295 137T370 128ZM420 791L518 931H645L515 791H420Z"
/>
<glyph unicode="&#xd4;" horiz-adv-x="697" d="M346 -6Q289 -6 242 3T161 38T109 109T91 228Q91 263 95 305T106 390Q123 494 151 563T222 672T325 729T467 746Q522 746 568 736T649 700T703 625T722 501Q722 469 718 427T706 341Q690 233 662 165T590 60T487
9T346 -6ZM370 128Q414 128 445 140T498 179T534 251T559 361Q565 402 569 438T573 499Q573 547 559 571T517 604T445 613Q403 613 372 602T318 565T281 491T254 370Q247 330 243 295T239 236Q239 193 252 170T295 137T370 128ZM310 791L441 933H542L618 791H532L479
867L396 791H310Z" />
<glyph unicode="&#xd5;" horiz-adv-x="697" d="M346 -6Q289 -6 242 3T161 38T109 109T91 228Q91 263 95 305T106 390Q123 494 151 563T222 672T325 729T467 746Q522 746 568 736T649 700T703 625T722 501Q722 469 718 427T706 341Q690 233 662 165T590 60T487
9T346 -6ZM370 128Q414 128 445 140T498 179T534 251T559 361Q565 402 569 438T573 499Q573 547 559 571T517 604T445 613Q403 613 372 602T318 565T281 491T254 370Q247 330 243 295T239 236Q239 193 252 170T295 137T370 128ZM294 795Q311 865 344 892T418 919Q441
919 460 913T497 898T529 884T560 878Q580 878 592 890T608 924H682Q666 857 637 827T559 796Q538 796 518 802T480 816T446 830T416 837Q397 837 385 825T368 795H294Z" />
<glyph unicode="&#xd6;" horiz-adv-x="697" d="M346 -6Q289 -6 242 3T161 38T109 109T91 228Q91 263 95 305T106 390Q123 494 151 563T222 672T325 729T467 746Q522 746 568 736T649 700T703 625T722 501Q722 469 718 427T706 341Q690 233 662 165T590 60T487
9T346 -6ZM370 128Q414 128 445 140T498 179T534 251T559 361Q565 402 569 438T573 499Q573 547 559 571T517 604T445 613Q403 613 372 602T318 565T281 491T254 370Q247 330 243 295T239 236Q239 193 252 170T295 137T370 128ZM533 797Q516 797 516 814Q516 815
516 819T520 845T532 915Q535 937 555 937H624Q641 937 641 920Q641 920 641 915T637 889T625 818Q623 797 602 797H533ZM333 797Q316 797 316 814Q316 815 316 819T320 845T332 915Q335 937 355 937H424Q441 937 441 920Q441 920 441 915T437 889T425 818Q423
797 402 797H333Z" />
<glyph unicode="&#xd7;" horiz-adv-x="609" d="M215 155L144 240L511 557L582 472L215 155ZM448 155L181 472L279 557L546 240L448 155Z" />
<glyph unicode="&#xd8;" horiz-adv-x="700" d="M43 0L690 740H774L127 0H43ZM346 -6Q289 -6 242 3T161 38T109 109T91 228Q91 263 95 305T106 390Q123 494 151 563T222 672T325 729T467 746Q522 746 568 736T649 700T703 625T722 501Q722 469 718 427T706 341Q690
233 662 165T590 60T487 9T346 -6ZM370 128Q414 128 445 140T498 179T534 251T559 361Q565 402 569 438T573 499Q573 547 559 571T517 604T445 613Q403 613 372 602T318 565T281 491T254 370Q247 330 243 295T239 236Q239 193 252 170T295 137T370 128Z" />
<glyph unicode="&#xd9;" horiz-adv-x="688" d="M345 -6Q226 -6 165 46T103 217Q103 243 106 275T116 342L179 740H327L261 320Q257 295 254 272T251 229Q251 176 278 152T365 127Q399 127 425 135T471 163T505 222T529 320L596 740H744L674 298Q658 201 630 141T562
49T467 6T345 -6ZM437 791L345 931H464L524 791H437Z" />
<glyph unicode="&#xda;" horiz-adv-x="688" d="M345 -6Q226 -6 165 46T103 217Q103 243 106 275T116 342L179 740H327L261 320Q257 295 254 272T251 229Q251 176 278 152T365 127Q399 127 425 135T471 163T505 222T529 320L596 740H744L674 298Q658 201 630 141T562
49T467 6T345 -6ZM408 791L506 931H633L503 791H408Z" />
<glyph unicode="&#xdb;" horiz-adv-x="688" d="M345 -6Q226 -6 165 46T103 217Q103 243 106 275T116 342L179 740H327L261 320Q257 295 254 272T251 229Q251 176 278 152T365 127Q399 127 425 135T471 163T505 222T529 320L596 740H744L674 298Q658 201 630 141T562
49T467 6T345 -6ZM298 791L429 933H530L606 791H520L467 867L384 791H298Z" />
<glyph unicode="&#xdc;" horiz-adv-x="688" d="M345 -6Q226 -6 165 46T103 217Q103 243 106 275T116 342L179 740H327L261 320Q257 295 254 272T251 229Q251 176 278 152T365 127Q399 127 425 135T471 163T505 222T529 320L596 740H744L674 298Q658 201 630 141T562
49T467 6T345 -6ZM521 797Q504 797 504 814Q504 815 504 819T508 845T520 915Q523 937 543 937H612Q629 937 629 920Q629 920 629 915T625 889T613 818Q611 797 590 797H521ZM321 797Q304 797 304 814Q304 815 304 819T308 845T320 915Q323 937 343 937H412Q429
937 429 920Q429 920 429 915T425 889T413 818Q411 797 390 797H321Z" />
<glyph unicode="&#xdd;" horiz-adv-x="641" d="M239 0L274 216L133 740H294L372 377L575 740H743L422 216L388 0H239ZM388 791L486 931H613L483 791H388Z" />
<glyph unicode="&#xde;" horiz-adv-x="569" d="M62 0L179 740H327L210 0H62ZM367 140Q323 140 280 147T203 161L220 273H347Q375 273 397 283T434 314T453 367Q455 380 457 394T459 414Q459 451 438 466T378 482H245L266 615H406Q464 615 510 599T583 542T610
428Q610 413 607 391T601 351Q591 290 568 250T512 185T442 151T367 140Z" />
<glyph unicode="&#xdf;" horiz-adv-x="605" d="M402 -6Q357 -6 318 -2T256 9L271 109Q301 107 328 106T382 105Q412 105 428 111T450 127T459 147Q460 155 460 160T461 169Q461 185 450 196T423 218T390 243T362 277T350 326Q350 356 363 383T395 434T434 481T466
526T479 572Q479 603 456 620T392 638Q342 638 314 605T273 489L195 0H47L134 555Q144 616 177 664T267 741T405 769Q481 769 527 745T594 681T615 596Q615 563 604 535T575 485T539 443T510 406T498 370Q498 355 509 343T536 317T568 289T595 253T606 203Q606
196 605 184T598 137Q591 92 571 64T522 21T462 0T402 -6Z" />
<glyph unicode="&#xe0;" horiz-adv-x="571" d="M218 -6Q178 -6 145 13T92 73T72 179Q72 208 76 239T84 291Q97 376 131 431T223 515T368 543Q413 543 456 535T535 513T594 480L518 0H387L379 54Q365 42 339 28T282 4T218 -6ZM290 113Q323 113 348 125T393 150L434
408Q426 413 407 418T360 424Q320 424 294 407T252 358T229 280Q225 257 223 238T221 206Q221 165 238 139T290 113ZM355 631L263 771H382L442 631H355Z" />
<glyph unicode="&#xe1;" horiz-adv-x="571" d="M218 -6Q178 -6 145 13T92 73T72 179Q72 208 76 239T84 291Q97 376 131 431T223 515T368 543Q413 543 456 535T535 513T594 480L518 0H387L379 54Q365 42 339 28T282 4T218 -6ZM290 113Q323 113 348 125T393 150L434
408Q426 413 407 418T360 424Q320 424 294 407T252 358T229 280Q225 257 223 238T221 206Q221 165 238 139T290 113ZM333 631L431 771H558L428 631H333Z" />
<glyph unicode="&#xe2;" horiz-adv-x="571" d="M218 -6Q178 -6 145 13T92 73T72 179Q72 208 76 239T84 291Q97 376 131 431T223 515T368 543Q413 543 456 535T535 513T594 480L518 0H387L379 54Q365 42 339 28T282 4T218 -6ZM290 113Q323 113 348 125T393 150L434
408Q426 413 407 418T360 424Q320 424 294 407T252 358T229 280Q225 257 223 238T221 206Q221 165 238 139T290 113ZM225 631L356 773H457L533 631H447L394 707L311 631H225Z" />
<glyph unicode="&#xe3;" horiz-adv-x="571" d="M218 -6Q178 -6 145 13T92 73T72 179Q72 208 76 239T84 291Q97 376 131 431T223 515T368 543Q413 543 456 535T535 513T594 480L518 0H387L379 54Q365 42 339 28T282 4T218 -6ZM290 113Q323 113 348 125T393 150L434
408Q426 413 407 418T360 424Q320 424 294 407T252 358T229 280Q225 257 223 238T221 206Q221 165 238 139T290 113ZM197 635Q214 705 247 732T321 759Q344 759 363 753T400 738T432 724T463 718Q483 718 495 730T511 764H585Q569 697 540 667T462 636Q441 636
421 642T383 656T349 670T319 677Q300 677 288 665T271 635H197Z" />
<glyph unicode="&#xe4;" horiz-adv-x="571" d="M218 -6Q178 -6 145 13T92 73T72 179Q72 208 76 239T84 291Q97 376 131 431T223 515T368 543Q413 543 456 535T535 513T594 480L518 0H387L379 54Q365 42 339 28T282 4T218 -6ZM290 113Q323 113 348 125T393 150L434
408Q426 413 407 418T360 424Q320 424 294 407T252 358T229 280Q225 257 223 238T221 206Q221 165 238 139T290 113ZM445 637Q428 637 428 654Q428 655 428 659T432 685T444 755Q447 777 467 777H536Q553 777 553 760Q553 760 553 755T549 729T537 658Q535 637
514 637H445ZM245 637Q228 637 228 654Q228 655 228 659T232 685T244 755Q247 777 267 777H336Q353 777 353 760Q353 760 353 755T349 729T337 658Q335 637 314 637H245Z" />
<glyph unicode="&#xe5;" horiz-adv-x="571" d="M218 -6Q178 -6 145 13T92 73T72 179Q72 208 76 239T84 291Q97 376 131 431T223 515T368 543Q413 543 456 535T535 513T594 480L518 0H387L379 54Q365 42 339 28T282 4T218 -6ZM290 113Q323 113 348 125T393 150L434
408Q426 413 407 418T360 424Q320 424 294 407T252 358T229 280Q225 257 223 238T221 206Q221 165 238 139T290 113ZM388 585Q336 585 306 607T276 683Q276 719 292 748T340 794T417 812Q470 812 499 790T528 715Q528 661 493 623T388 585ZM395 640Q428 640 443
661T458 712Q458 738 445 748T411 758Q377 758 361 736T345 685Q345 660 359 650T395 640Z" />
<glyph unicode="&#xe6;" horiz-adv-x="876" d="M221 -6Q181 -6 148 12T95 70T75 177Q75 276 96 345T156 459T246 523T359 543Q385 543 415 540T475 528T530 505Q542 515 562 522T606 534T649 541T681 544Q789 544 842 504T896 378Q896 323 872 284T798 223T671
202Q647 202 622 204T576 208T548 213Q546 203 546 195T545 178Q545 155 554 138T588 112T656 103H844L830 16Q800 10 761 5T679 -3T595 -6Q557 -6 524 3T466 29T430 71Q397 48 363 31T294 4T221 -6ZM286 115Q309 115 331 123T373 144T402 169Q401 177 401 185T401
203Q401 238 405 274T420 344T445 407Q435 413 414 418T373 424Q331 424 302 407T256 360T230 291T222 205Q222 164 237 140T286 115ZM637 285Q702 285 729 306T757 362Q757 396 739 413T685 431Q653 431 631 422T595 394T573 350T558 291Q561 290 573 289T601
286T637 285Z" />
<glyph unicode="&#xe7;" horiz-adv-x="475" d="M271 -6Q212 -6 168 12T99 75T75 198Q75 215 78 240T85 293Q99 385 133 439T219 518T334 543Q378 543 426 535T518 515L504 429H368Q327 429 300 412T256 359T229 268Q226 248 225 234T223 211Q223 173 234 150T266
117T319 106H462L449 22Q415 10 373 2T271 -6ZM131 -201L140 -140L159 -137Q176 -135 186 -128T200 -113T205 -97Q205 -87 197 -79T165 -67L226 -53Q258 -53 278 -67T299 -114Q299 -135 287 -155T248 -188T179 -201H131ZM165 -67L229 14H296L232 -67H165Z" />
<glyph unicode="&#xe8;" horiz-adv-x="548" d="M288 -6Q210 -6 164 17T96 86T75 194Q75 222 78 247T85 297Q99 385 134 439T228 518T366 544Q405 544 442 537T507 513T553 464T570 384Q570 328 552 292T502 237T427 210T338 202Q301 202 271 205T223 213Q222 205
222 196T221 177Q221 139 250 121T346 103H519L505 16Q465 8 408 1T288 -6ZM300 285Q346 285 375 293T418 320T432 368Q432 400 413 415T356 431Q318 431 294 415T255 368T233 291Q247 289 264 287T300 285ZM354 631L262 771H381L441 631H354Z" />
<glyph unicode="&#xe9;" horiz-adv-x="548" d="M288 -6Q210 -6 164 17T96 86T75 194Q75 222 78 247T85 297Q99 385 134 439T228 518T366 544Q405 544 442 537T507 513T553 464T570 384Q570 328 552 292T502 237T427 210T338 202Q301 202 271 205T223 213Q222 205
222 196T221 177Q221 139 250 121T346 103H519L505 16Q465 8 408 1T288 -6ZM300 285Q346 285 375 293T418 320T432 368Q432 400 413 415T356 431Q318 431 294 415T255 368T233 291Q247 289 264 287T300 285ZM332 631L430 771H557L427 631H332Z" />
<glyph unicode="&#xea;" horiz-adv-x="548" d="M288 -6Q210 -6 164 17T96 86T75 194Q75 222 78 247T85 297Q99 385 134 439T228 518T366 544Q405 544 442 537T507 513T553 464T570 384Q570 328 552 292T502 237T427 210T338 202Q301 202 271 205T223 213Q222 205
222 196T221 177Q221 139 250 121T346 103H519L505 16Q465 8 408 1T288 -6ZM300 285Q346 285 375 293T418 320T432 368Q432 400 413 415T356 431Q318 431 294 415T255 368T233 291Q247 289 264 287T300 285ZM224 631L355 773H456L532 631H446L393 707L310 631H224Z"
/>
<glyph unicode="&#xeb;" horiz-adv-x="548" d="M288 -6Q210 -6 164 17T96 86T75 194Q75 222 78 247T85 297Q99 385 134 439T228 518T366 544Q405 544 442 537T507 513T553 464T570 384Q570 328 552 292T502 237T427 210T338 202Q301 202 271 205T223 213Q222 205
222 196T221 177Q221 139 250 121T346 103H519L505 16Q465 8 408 1T288 -6ZM300 285Q346 285 375 293T418 320T432 368Q432 400 413 415T356 431Q318 431 294 415T255 368T233 291Q247 289 264 287T300 285ZM444 637Q427 637 427 654Q427 655 427 659T431 685T443
755Q446 777 466 777H535Q552 777 552 760Q552 760 552 755T548 729T536 658Q534 637 513 637H444ZM244 637Q227 637 227 654Q227 655 227 659T231 685T243 755Q246 777 266 777H335Q352 777 352 760Q352 760 352 755T348 729T336 658Q334 637 313 637H244Z" />
<glyph unicode="&#xec;" horiz-adv-x="255" d="M54 0L139 537H287L203 0H54ZM204 631L112 771H231L291 631H204Z" />
<glyph unicode="&#xed;" horiz-adv-x="255" d="M54 0L139 537H287L203 0H54ZM182 631L280 771H407L277 631H182Z" />
<glyph unicode="&#xee;" horiz-adv-x="255" d="M54 0L139 537H287L203 0H54ZM74 631L205 773H306L382 631H296L243 707L160 631H74Z" />
<glyph unicode="&#xef;" horiz-adv-x="255" d="M54 0L139 537H287L203 0H54ZM294 637Q277 637 277 654Q277 655 277 659T281 685T293 755Q296 777 316 777H385Q402 777 402 760Q402 760 402 755T398 729T386 658Q384 637 363 637H294ZM94 637Q77 637 77 654Q77
655 77 659T81 685T93 755Q96 777 116 777H185Q202 777 202 760Q202 760 202 755T198 729T186 658Q184 637 163 637H94Z" />
<glyph unicode="&#xf0;" horiz-adv-x="574" d="M81 268Q94 349 115 400T166 479T238 517T335 528Q389 528 431 508T497 453T522 369Q535 338 548 306T574 243Q560 143 525 89T432 15T286 -6Q217 -6 170 15T99 77T75 181Q75 205 76 226T81 268ZM226 246Q224 229
223 215T222 188Q222 158 231 142T258 120T302 113Q331 113 351 119T385 141T409 186T426 263Q430 287 432 307T434 345Q434 382 415 397T350 412Q321 412 301 405T267 380T244 330T226 246ZM225 763Q349 763 431 732T553 632T593 449Q593 404 589 353T574 243L461
323Q467 361 470 394T473 455Q473 537 445 583T358 647T209 666L225 763ZM606 760L619 713L242 563L229 610L606 760Z" />
<glyph unicode="&#xf1;" horiz-adv-x="590" d="M54 0L138 537H261L278 482Q313 508 359 526T463 544Q508 544 538 528T583 485T599 423Q599 406 598 384T587 312L538 0H390L438 307Q441 328 442 338T444 354Q444 380 429 395T379 411Q345 411 316 399T260 366L202
0H54ZM206 635Q223 705 256 732T330 759Q353 759 372 753T409 738T441 724T472 718Q492 718 504 730T520 764H594Q578 697 549 667T471 636Q450 636 430 642T392 656T358 670T328 677Q309 677 297 665T280 635H206Z" />
<glyph unicode="&#xf2;" horiz-adv-x="574" d="M286 -6Q217 -6 170 15T99 77T75 181Q75 210 77 234T83 283Q96 363 118 414T175 493T258 532T372 543Q457 543 503 522T566 457T583 347Q583 323 581 296T574 239Q559 142 524 88T431 14T286 -6ZM302 113Q331 113
351 119T385 141T408 186T426 261Q430 289 432 311T435 354Q435 394 416 410T353 427Q323 427 303 420T269 395T246 344T228 261Q225 240 224 222T222 188Q222 158 231 142T258 120T302 113ZM352 631L260 771H379L439 631H352Z" />
<glyph unicode="&#xf3;" horiz-adv-x="574" d="M286 -6Q217 -6 170 15T99 77T75 181Q75 210 77 234T83 283Q96 363 118 414T175 493T258 532T372 543Q457 543 503 522T566 457T583 347Q583 323 581 296T574 239Q559 142 524 88T431 14T286 -6ZM302 113Q331 113
351 119T385 141T408 186T426 261Q430 289 432 311T435 354Q435 394 416 410T353 427Q323 427 303 420T269 395T246 344T228 261Q225 240 224 222T222 188Q222 158 231 142T258 120T302 113ZM330 631L428 771H555L425 631H330Z" />
<glyph unicode="&#xf4;" horiz-adv-x="574" d="M286 -6Q217 -6 170 15T99 77T75 181Q75 210 77 234T83 283Q96 363 118 414T175 493T258 532T372 543Q457 543 503 522T566 457T583 347Q583 323 581 296T574 239Q559 142 524 88T431 14T286 -6ZM302 113Q331 113
351 119T385 141T408 186T426 261Q430 289 432 311T435 354Q435 394 416 410T353 427Q323 427 303 420T269 395T246 344T228 261Q225 240 224 222T222 188Q222 158 231 142T258 120T302 113ZM222 631L353 773H454L530 631H444L391 707L308 631H222Z" />
<glyph unicode="&#xf5;" horiz-adv-x="574" d="M286 -6Q217 -6 170 15T99 77T75 181Q75 210 77 234T83 283Q96 363 118 414T175 493T258 532T372 543Q457 543 503 522T566 457T583 347Q583 323 581 296T574 239Q559 142 524 88T431 14T286 -6ZM302 113Q331 113
351 119T385 141T408 186T426 261Q430 289 432 311T435 354Q435 394 416 410T353 427Q323 427 303 420T269 395T246 344T228 261Q225 240 224 222T222 188Q222 158 231 142T258 120T302 113ZM194 635Q211 705 244 732T318 759Q341 759 360 753T397 738T429 724T460
718Q480 718 492 730T508 764H582Q566 697 537 667T459 636Q438 636 418 642T380 656T346 670T316 677Q297 677 285 665T268 635H194Z" />
<glyph unicode="&#xf6;" horiz-adv-x="574" d="M286 -6Q217 -6 170 15T99 77T75 181Q75 210 77 234T83 283Q96 363 118 414T175 493T258 532T372 543Q457 543 503 522T566 457T583 347Q583 323 581 296T574 239Q559 142 524 88T431 14T286 -6ZM302 113Q331 113
351 119T385 141T408 186T426 261Q430 289 432 311T435 354Q435 394 416 410T353 427Q323 427 303 420T269 395T246 344T228 261Q225 240 224 222T222 188Q222 158 231 142T258 120T302 113ZM442 637Q425 637 425 654Q425 655 425 659T429 685T441 755Q444 777
464 777H533Q550 777 550 760Q550 760 550 755T546 729T534 658Q532 637 511 637H442ZM242 637Q225 637 225 654Q225 655 225 659T229 685T241 755Q244 777 264 777H333Q350 777 350 760Q350 760 350 755T346 729T334 658Q332 637 311 637H242Z" />
<glyph unicode="&#xf7;" horiz-adv-x="609" d="M278 87Q255 87 258 110L270 189Q275 214 298 214H383Q409 214 404 189L392 110Q390 97 382 92T363 87H278ZM343 498Q333 498 327 504T322 521L335 600Q338 625 363 625H448Q472 625 469 600L457 521Q455 508 447
503T428 498H343ZM127 296L146 416H594L575 296H127Z" />
<glyph unicode="&#xf8;" horiz-adv-x="570" d="M30 0L556 537H625L99 0H30ZM286 -6Q217 -6 170 15T99 77T75 181Q75 210 77 234T83 283Q96 363 118 414T175 493T258 532T372 543Q457 543 503 522T566 457T583 347Q583 323 581 296T574 239Q559 142 524 88T431
14T286 -6ZM302 113Q331 113 351 119T385 141T408 186T426 261Q430 289 432 311T435 354Q435 394 416 410T353 427Q323 427 303 420T269 395T246 344T228 261Q225 240 224 222T222 188Q222 158 231 142T258 120T302 113Z" />
<glyph unicode="&#xf9;" horiz-adv-x="590" d="M209 -6Q139 -6 108 27T76 120Q76 141 77 156T81 185L137 537H285L233 203Q232 198 232 193T231 181Q231 152 248 140T294 127Q331 127 359 139T415 171L473 537H621L537 0H405L397 55Q369 36 342 22T283 1T209 -6ZM372
631L280 771H399L459 631H372Z" />
<glyph unicode="&#xfa;" horiz-adv-x="590" d="M209 -6Q139 -6 108 27T76 120Q76 141 77 156T81 185L137 537H285L233 203Q232 198 232 193T231 181Q231 152 248 140T294 127Q331 127 359 139T415 171L473 537H621L537 0H405L397 55Q369 36 342 22T283 1T209 -6ZM350
631L448 771H575L445 631H350Z" />
<glyph unicode="&#xfb;" horiz-adv-x="590" d="M209 -6Q139 -6 108 27T76 120Q76 141 77 156T81 185L137 537H285L233 203Q232 198 232 193T231 181Q231 152 248 140T294 127Q331 127 359 139T415 171L473 537H621L537 0H405L397 55Q369 36 342 22T283 1T209 -6ZM242
631L373 773H474L550 631H464L411 707L328 631H242Z" />
<glyph unicode="&#xfc;" horiz-adv-x="590" d="M209 -6Q139 -6 108 27T76 120Q76 141 77 156T81 185L137 537H285L233 203Q232 198 232 193T231 181Q231 152 248 140T294 127Q331 127 359 139T415 171L473 537H621L537 0H405L397 55Q369 36 342 22T283 1T209 -6ZM462
637Q445 637 445 654Q445 655 445 659T449 685T461 755Q464 777 484 777H553Q570 777 570 760Q570 760 570 755T566 729T554 658Q552 637 531 637H462ZM262 637Q245 637 245 654Q245 655 245 659T249 685T261 755Q264 777 284 777H353Q370 777 370 760Q370 760
370 755T366 729T354 658Q352 637 331 637H262Z" />
<glyph unicode="&#xfd;" horiz-adv-x="575" d="M96 -237V-132Q157 -119 203 -90T278 0Q231 4 202 20T157 67T137 144L91 537H244L268 175Q270 154 278 143T299 127T324 121L442 410Q454 440 463 475T474 545H613Q613 491 599 433T553 308L411 8Q370 -80 323 -131T221
-206T96 -237ZM324 631L422 771H549L419 631H324Z" />
<glyph unicode="&#xfe;" horiz-adv-x="575" d="M15 -237L174 763H323L287 538Q312 541 341 542T405 543Q501 543 541 495T582 351Q582 326 580 299T572 244Q559 159 525 104T439 22T323 -6Q288 -6 257 -1T204 15L164 -237H15ZM304 120Q340 120 365 135T406 185T431
272Q433 286 434 299T436 326Q436 375 419 399T363 424L268 423L222 134Q236 129 248 126T273 122T304 120Z" />
<glyph unicode="&#xff;" horiz-adv-x="575" d="M96 -237V-132Q157 -119 203 -90T278 0Q231 4 202 20T157 67T137 144L91 537H244L268 175Q270 154 278 143T299 127T324 121L442 410Q454 440 463 475T474 545H613Q613 491 599 433T553 308L411 8Q370 -80 323 -131T221
-206T96 -237ZM436 637Q419 637 419 654Q419 655 419 659T423 685T435 755Q438 777 458 777H527Q544 777 544 760Q544 760 544 755T540 729T528 658Q526 637 505 637H436ZM236 637Q219 637 219 654Q219 655 219 659T223 685T235 755Q238 777 258 777H327Q344 777
344 760Q344 760 344 755T340 729T328 658Q326 637 305 637H236Z" />
<glyph unicode="&#x2013;" horiz-adv-x="517" d="M59 229L77 350H550L532 229H59Z" />
<glyph unicode="&#x2014;" horiz-adv-x="740" d="M59 229L77 350H773L755 229H59Z" />
<glyph unicode="&#x2018;" horiz-adv-x="224" d="M141 493Q123 493 123 511Q123 513 123 514T124 517L148 670Q154 706 173 724T215 748T258 755Q271 755 278 754T291 751L282 697Q263 697 258 688T250 669L245 640H255Q274 640 274 622Q274 621 274 620T274 618L258
517Q254 493 232 493H141Z" />
<glyph unicode="&#x2019;" horiz-adv-x="224" d="M158 493Q144 493 138 494T124 496L133 551Q153 551 158 561T166 579L170 608H160Q141 608 141 626Q141 627 141 628T142 630L157 731Q161 755 183 755H275Q292 755 292 737Q292 736 292 735T291 731L267 578Q261
542 243 524T201 500T158 493Z" />
<glyph unicode="&#x201a;" horiz-adv-x="224" d="M61 -120Q47 -120 38 -119T27 -117L36 -63Q56 -63 61 -53T68 -35L73 -6H63Q44 -6 44 12Q44 13 44 14T44 17L60 117Q64 141 86 141H178Q195 141 195 124Q195 123 195 121T194 117L170 -36Q164 -72 146 -90T104 -114T61
-120Z" />
<glyph unicode="&#x201c;" horiz-adv-x="392" d="M141 493Q123 493 123 511Q123 513 123 514T124 517L148 670Q154 706 173 724T215 748T258 755Q271 755 278 754T291 751L282 697Q263 697 258 688T250 669L245 640H255Q274 640 274 622Q274 621 274 620T274 618L258
517Q254 493 232 493H141ZM309 493Q291 493 291 511Q291 513 291 514T292 517L316 670Q322 706 341 724T383 748T426 755Q439 755 446 754T459 751L450 697Q431 697 426 688T418 669L413 640H423Q442 640 442 622Q442 621 442 620T442 618L426 517Q422 493 400
493H309Z" />
<glyph unicode="&#x201d;" horiz-adv-x="392" d="M158 493Q144 493 138 494T124 496L133 551Q153 551 158 561T166 579L170 608H160Q141 608 141 626Q141 627 141 628T142 630L157 731Q161 755 183 755H275Q292 755 292 737Q292 736 292 735T291 731L267 578Q261
542 243 524T201 500T158 493ZM326 493Q312 493 306 494T292 496L301 551Q321 551 326 561T334 579L338 608H328Q309 608 309 626Q309 627 309 628T310 630L325 731Q329 755 351 755H443Q460 755 460 737Q460 736 460 735T459 731L435 578Q429 542 411 524T369
500T326 493Z" />
<glyph unicode="&#x201e;" horiz-adv-x="392" d="M61 -120Q47 -120 38 -119T27 -117L36 -63Q56 -63 61 -53T68 -35L73 -6H63Q44 -6 44 12Q44 13 44 14T44 17L60 117Q64 141 86 141H178Q195 141 195 124Q195 123 195 121T194 117L170 -36Q164 -72 146 -90T104 -114T61
-120ZM229 -120Q215 -120 206 -119T195 -117L204 -63Q224 -63 229 -53T236 -35L241 -6H231Q212 -6 212 12Q212 13 212 14T212 17L228 117Q232 141 254 141H346Q363 141 363 124Q363 123 363 121T362 117L338 -36Q332 -72 314 -90T272 -114T229 -120Z" />
<glyph unicode="&#x2022;" horiz-adv-x="314" d="M135 290Q103 290 108 322L126 440Q128 456 138 465T165 475H277Q312 475 306 440L287 322Q284 304 273 297T246 290H135Z" />
<glyph unicode="&#x2039;" horiz-adv-x="370" d="M264 60L74 282L329 500L392 426L223 282L348 135L264 60Z" />
<glyph unicode="&#x203a;" horiz-adv-x="370" d="M117 60L57 136L227 281L103 427L189 500L377 281L117 60Z" />
</font>
</defs>
</svg>
