<?xml version="1.0" standalone="no"?>
<!DOCTYPE svg PUBLIC "-//W3C//DTD SVG 1.1//EN" "http://www.w3.org/Graphics/SVG/1.1/DTD/svg11.dtd">
<svg xmlns="http://www.w3.org/2000/svg">
<defs >
<font id="Exo" horiz-adv-x="533" ><font-face
    font-family="Exo Thin Medium"
    units-per-em="1000"
    panose-1="0 0 0 0 0 0 0 0 0 0"
    ascent="1002"
    descent="-327"
    alphabetic="0" />
<glyph unicode=" " horiz-adv-x="266" />
<glyph unicode="!" horiz-adv-x="268" d="M95 201L82 736H183L168 201H95ZM103 -1Q85 -1 85 16V103Q85 121 103 121H160Q178 121 178 103V16Q178 7 173 3T160 -1H103Z" />
<glyph unicode="&quot;" horiz-adv-x="320" d="M47 504L38 682V749H135V682L127 504H47ZM190 504L181 682V749H278V682L270 504H190Z" />
<glyph unicode="#" horiz-adv-x="697" d="M143 0L182 223H20L30 289H194L219 441H54L65 507H232L271 732H337L298 507H440L478 732H544L506 507H679L669 441H495L471 289H644L635 223H456L418 0H352L390 223H248L210 0H143ZM261 289H405L429 441H285L261 289Z" />
<glyph unicode="$" horiz-adv-x="609" d="M270 726L260 774L309 824L319 776L270 726ZM260 -89V7H319V-89H260ZM286 -6Q262 -6 232 -5T170 0T110 6T61 14V92Q87 90 123 88T201 85T282 84Q325 84 358 92T411 122T431 184V227Q431 272 407 296T332 320H257Q161 320
109 362T56 506V546Q56 652 113 697T277 743Q312 743 352 740T430 731T493 721V643Q448 646 393 649T288 653Q246 653 216 644T169 610T152 542V512Q152 458 181 437T262 416H343Q406 416 446 393T507 330T527 239V187Q527 109 495 67T409 10T286 -6Z" />
<glyph unicode="%" horiz-adv-x="960" d="M219 0L665 732H732L290 0H219ZM174 349Q101 349 72 382T42 479V602Q42 666 71 699T176 732H277Q351 732 379 699T408 602V479Q408 415 380 382T275 349H174ZM185 414H263Q307 414 325 431T343 492V589Q343 633 327 650T265
667H187Q147 667 127 653T107 589V492Q107 450 124 432T185 414ZM684 3Q611 3 582 36T553 133V256Q553 320 581 353T686 386H788Q862 386 890 353T919 256V133Q919 69 891 36T786 3H684ZM696 68H774Q818 68 836 85T854 146V243Q854 287 837 304T776 321H698Q658
321 638 307T618 243V146Q618 104 635 86T696 68Z" />
<glyph unicode="&amp;" horiz-adv-x="681" d="M233 -6Q178 -6 134 18T64 87T39 190Q39 243 62 290T132 379L196 433L179 458Q148 503 139 536T130 598Q130 648 154 678T218 722T306 735Q345 735 378 733T437 727T484 719V646H324Q282 646 257 630T231 577Q231
554 242 530T280 469L460 223L607 359L644 315L576 219L511 157L628 0H522L446 99L411 69Q366 28 325 11T233 -6ZM249 87Q278 87 304 98T362 139L391 167L245 364L197 322Q162 292 149 262T135 201Q135 150 166 119T249 87Z" />
<glyph unicode="&apos;" horiz-adv-x="177" d="M47 504L38 682V749H135V682L127 504H47Z" />
<glyph unicode="(" horiz-adv-x="359" d="M247 -210Q198 -138 159 -59T97 115T74 326Q74 438 98 532T161 708T247 860H339Q294 783 257 700T198 524T175 326Q175 221 195 131T253 -42T339 -210H247Z" />
<glyph unicode=")" horiz-adv-x="359" d="M20 -210Q68 -130 105 -47T163 128T184 325Q184 430 165 518T109 689T20 860H112Q163 787 202 707T262 534T284 325Q284 213 262 119T201 -55T112 -210H20Z" />
<glyph unicode="*" horiz-adv-x="446" d="M296 517L259 561L374 643L397 610L296 517ZM153 401L116 413L145 549L200 536L153 401ZM193 575L50 580V620L191 630L193 575ZM333 410L211 479L240 527L356 441L333 410ZM233 589L184 723L221 735L286 610L233 589Z" />
<glyph unicode="+" horiz-adv-x="609" d="M263 132V580H345V132H263ZM80 315V397H528V315H80Z" />
<glyph unicode="," horiz-adv-x="210" d="M95 -82Q82 -82 73 -80T63 -77V-46Q75 -46 80 -42T86 -28V6H77Q70 6 65 11T60 25V101Q60 121 77 121H133Q143 121 146 116T150 101V-25Q150 -49 142 -61T120 -78T95 -82Z" />
<glyph unicode="-" horiz-adv-x="345" d="M24 249V331H321V249H24Z" />
<glyph unicode="." horiz-adv-x="210" d="M77 -1Q60 -1 60 16V103Q60 121 77 121H134Q152 121 152 103V16Q152 7 147 3T134 -1H77Z" />
<glyph unicode="/" horiz-adv-x="421" d="M20 -72L301 770H401L120 -72H20Z" />
<glyph unicode="0" horiz-adv-x="653" d="M256 -3Q200 -3 158 16T93 76T70 177V558Q70 619 93 660T158 722T256 743H403Q465 743 504 720T563 656T583 558V177Q583 86 535 42T402 -3H256ZM277 88H378Q433 88 457 115T482 191V549Q482 603 456 628T382 653H274Q226
653 198 626T170 549V191Q170 139 198 114T277 88Z" />
<glyph unicode="1" horiz-adv-x="365" d="M185 0V646L40 613V677L195 744H286V0H185Z" />
<glyph unicode="2" horiz-adv-x="591" d="M52 0V81L316 338Q354 374 377 405T410 467T421 536Q421 569 409 594T365 634T277 648H75V726Q121 732 177 737T298 743Q383 743 431 720T500 653T521 550Q521 499 508 457T466 375T394 292L187 92H547V0H52Z" />
<glyph unicode="3" horiz-adv-x="583" d="M314 -6Q234 -6 165 -2T42 9V88H278Q321 88 352 96T400 126T418 187V230Q418 266 401 286T357 316T300 326L113 334V409L296 417Q347 420 378 439T409 504V546Q409 595 376 621T272 648H64V727Q113 734 175 739T311 743Q377
743 420 722T486 661T508 567V507Q508 474 499 451T474 411T440 385T406 371Q424 367 443 356T480 326T509 280T520 218V170Q520 84 466 39T314 -6Z" />
<glyph unicode="4" horiz-adv-x="602" d="M386 1V178H46L25 230L291 737H394L143 264H386V445L407 518H487V264H580V195L487 178V1H386Z" />
<glyph unicode="5" horiz-adv-x="623" d="M330 -5Q265 -5 198 -2T76 7V86H333Q375 86 404 99T449 138T465 195V267Q465 313 439 339T356 366H284Q243 366 219 348T188 292H93L114 737H540V647H201L190 405Q203 424 232 438T304 452H389Q447 452 486 430T545 370T565
284V175Q565 114 537 74T456 15T330 -5Z" />
<glyph unicode="6" horiz-adv-x="618" d="M274 -3Q225 -3 186 13T120 70T79 183T65 365Q65 468 83 539T135 656T219 722T331 743Q375 743 426 740T516 731V653H337Q254 653 210 593T166 412Q194 417 227 420T294 424T358 425Q426 425 471 408T538 356T560 266V162Q560
101 537 65T475 13T386 -3H274ZM292 87H365Q392 87 413 95T447 123T460 179V248Q460 286 446 305T403 332T332 339H166Q166 264 174 215T198 138T237 99T292 87Z" />
<glyph unicode="7" horiz-adv-x="547" d="M137 0L383 636H30V737H482L511 689L250 0H137Z" />
<glyph unicode="8" horiz-adv-x="638" d="M258 -3Q219 -3 186 4T127 29T88 76T74 148V252Q74 286 87 311T121 353T165 374Q134 388 118 408T95 453T89 504V589Q89 644 111 678T171 727T254 742H393Q440 742 475 727T530 678T550 589V504Q550 488 546 470T534 434T511
403T478 385Q511 378 529 358T556 311T564 257V148Q564 91 542 59T482 12T393 -3H258ZM274 83H372Q421 83 442 103T464 164V248Q464 293 442 313T369 333H274Q259 333 242 329T209 314T185 288T175 248V164Q175 120 202 102T274 83ZM274 419H368Q400 419 418 431T444
463T452 503V566Q452 618 432 637T372 656H274Q228 656 208 636T187 566V503Q187 464 208 442T274 419Z" />
<glyph unicode="9" horiz-adv-x="618" d="M289 -5Q244 -5 194 -2T104 7V86H283Q366 86 410 145T454 326Q427 321 394 318T326 314T262 313Q194 313 149 330T82 382T60 472V577Q60 637 83 673T145 725T234 741H346Q395 741 434 725T499 668T540 555T555 373Q555
271 537 199T485 82T401 16T289 -5ZM287 399H454Q454 474 446 523T422 600T383 639T328 651H255Q228 651 207 643T173 615T160 559V490Q160 452 175 433T218 407T287 399Z" />
<glyph unicode=":" horiz-adv-x="210" d="M77 -1Q60 -1 60 16V103Q60 121 77 121H134Q152 121 152 103V16Q152 7 147 3T134 -1H77ZM77 414Q60 414 60 431V518Q60 536 77 536H134Q152 536 152 518V431Q152 422 147 418T134 414H77Z" />
<glyph unicode=";" horiz-adv-x="210" d="M77 414Q60 414 60 431V518Q60 536 77 536H134Q152 536 152 518V431Q152 422 147 418T134 414H77ZM95 -82Q82 -82 73 -80T63 -77V-46Q75 -46 80 -42T86 -28V6H77Q70 6 65 11T60 25V101Q60 121 77 121H133Q143 121 146
116T150 101V-25Q150 -49 142 -61T120 -78T95 -82Z" />
<glyph unicode="&lt;" horiz-adv-x="609" d="M511 168L96 304V394L511 528V440L193 351L511 256V168Z" />
<glyph unicode="=" horiz-adv-x="609" d="M80 451V533H528V451H80ZM80 435V517H528V435H80Z" />
<glyph unicode="&gt;" horiz-adv-x="609" d="M98 168V256L416 350L98 440V528L513 394V304L98 168Z" />
<glyph unicode="?" horiz-adv-x="530" d="M163 200V370H219Q291 370 324 392T358 474V525Q358 593 327 621T229 649Q180 649 137 640T44 612V684Q88 711 141 724T256 739Q328 740 372 715T437 645T458 539V472Q458 382 407 337T240 292V200H163ZM173 -1Q155 -1
155 16V103Q155 121 173 121H230Q247 121 247 103V16Q247 7 242 3T230 -1H173Z" />
<glyph unicode="@" horiz-adv-x="876" d="M265 -171Q223 -171 187 -159T124 -123T81 -59T65 35V346Q65 370 69 395T86 446T120 492T178 525T265 537H452Q483 537 513 532T569 510T608 464T623 384V25H561L547 85Q546 85 530 75T488 51T429 27T362 16Q320 16 292
34T249 83T234 147V191Q234 252 271 285T376 318H545V377Q545 423 521 441T453 459H265Q230 459 203 449T159 414T143 342V44Q143 -9 162 -38T209 -79T265 -91H584Q654 -91 684 -56T714 44V510Q714 576 681 615T584 654H188V715Q212 720 259 724T366 730T489 732H584Q625
732 662 720T729 682T775 613T792 510V44Q792 -26 771 -73T704 -146T588 -171H265ZM393 95Q416 95 445 102T501 120T545 144V264L394 256Q376 255 358 251T328 233T316 193V162Q316 131 336 113T393 95Z" />
<glyph unicode="A" horiz-adv-x="678" d="M29 0L275 737H403L649 0H544L479 193H197L133 0H29ZM221 284H454L338 649L221 284Z" />
<glyph unicode="B" horiz-adv-x="611" d="M73 0V737H347Q446 737 494 689T543 547Q543 501 530 468T493 413T440 383Q461 377 483 365T525 332T557 279T569 204Q569 127 544 83T471 19T358 0H73ZM174 90H355Q391 90 417 102T458 142T473 221Q473 258 457 284T415
325T355 339H174V90ZM174 417H350Q393 417 419 448T447 531Q449 596 420 621T346 647H174V417Z" />
<glyph unicode="C" horiz-adv-x="582" d="M317 -6Q251 -6 202 9T120 63T71 177T55 371Q55 483 71 556T121 670T205 727T321 743Q358 743 397 739T473 729T539 714V638Q521 641 490 644T420 650T339 653Q289 653 254 642T197 600T165 514T155 370Q155 281 164 225T195
138T251 96T338 84Q413 84 461 88T539 96V19Q509 12 473 6T398 -3T317 -6Z" />
<glyph unicode="D" horiz-adv-x="673" d="M73 0V737H371Q440 737 487 712T563 640T605 524T618 368Q618 250 591 168T508 43T371 0H73ZM174 90H362Q417 90 451 123T501 219T517 368Q517 447 508 500T480 586T432 633T362 647H174V90Z" />
<glyph unicode="E" horiz-adv-x="590" d="M237 -4Q212 -4 184 0T131 19T89 64T73 145V583Q73 627 86 657T122 704T171 729T226 737Q291 736 345 735T447 731T537 727V644H253Q216 644 195 625T174 565V412L492 406V328L174 321V170Q174 136 185 119T215 96T255
90H537V7Q491 4 440 2T338 -2T237 -4Z" />
<glyph unicode="F" horiz-adv-x="572" d="M73 0V583Q73 627 86 657T122 704T171 729T226 737Q267 736 319 736T427 733T537 726V644H251Q214 644 194 624T174 566V395L492 389V311L174 305V0H73Z" />
<glyph unicode="G" horiz-adv-x="657" d="M289 -5Q219 -6 174 18T102 89T66 206T55 370Q55 462 66 532T106 649T184 719T311 743Q354 743 396 740T477 731T552 716V639Q532 642 496 645T417 650T328 653Q258 653 221 626T170 536T155 369Q155 286 163 232T189
146T238 101T318 87Q364 87 409 98T487 120V315H323V392Q343 395 370 397T428 400T490 402Q518 402 541 401T584 398V0H509L494 51Q461 34 406 15T289 -5Z" />
<glyph unicode="H" horiz-adv-x="688" d="M73 0V737H174V406H515V737H615V0H515V316H174V0H73Z" />
<glyph unicode="I" horiz-adv-x="247" d="M73 0V737H174V0H73Z" />
<glyph unicode="J" horiz-adv-x="391" d="M143 -6Q113 -6 81 0T27 16V95Q48 91 74 88T122 84Q152 84 173 93T205 122T217 181V737H317V168Q317 106 299 68T242 12T143 -6Z" />
<glyph unicode="K" horiz-adv-x="618" d="M73 0V737H174V412H293L480 737H587L373 368L591 0H483L293 322H174V0H73Z" />
<glyph unicode="L" d="M229 0Q182 0 147 14T92 63T73 156V737H174V171Q174 139 185 122T214 98T253 92H508V0H229Z" />
<glyph unicode="M" horiz-adv-x="850" d="M53 0L137 737H237L425 122L610 737H711L797 0H700L628 614L645 612L471 0H378L201 612L219 613L150 0H53Z" />
<glyph unicode="N" horiz-adv-x="689" d="M84 0V737H166L527 172V737H627V0H546L185 565V0H84Z" />
<glyph unicode="O" horiz-adv-x="690" d="M345 -6Q273 -6 219 8T128 60T73 172T55 366Q55 486 73 560T128 674T219 728T345 743Q419 743 473 729T564 675T618 561T636 366Q636 246 618 172T564 60T473 8T345 -6ZM345 84Q397 84 433 95T492 135T525 220T535 366Q535
461 525 518T492 604T434 643T345 653Q296 653 260 643T201 604T167 518T155 366Q155 276 164 221T196 136T255 95T345 84Z" />
<glyph unicode="P" horiz-adv-x="609" d="M73 0V737H372Q405 737 440 729T504 696T552 623T570 496Q570 417 552 368T503 293T438 258T371 249Q355 249 328 250T270 253T214 257T174 261V0H73ZM174 339H357Q389 339 414 353T454 401T469 495Q469 554 455 587T416
633T363 647H174V339Z" />
<glyph unicode="Q" horiz-adv-x="690" d="M509 -178Q468 -178 431 -163T368 -116T337 -35H406Q417 -71 445 -87T505 -103Q520 -103 534 -101T561 -94V-171Q548 -173 535 -175T509 -178ZM345 -6Q273 -6 219 8T128 60T73 172T55 366Q55 486 73 560T128 674T219 728T345
743Q419 743 473 729T564 675T618 561T636 366Q636 246 618 172T564 60T473 8T345 -6ZM345 84Q397 84 433 95T492 135T525 220T535 366Q535 461 525 518T492 604T434 643T345 653Q296 653 260 643T201 604T167 518T155 366Q155 276 164 221T196 136T255 95T345
84Z" />
<glyph unicode="R" horiz-adv-x="614" d="M73 0V737H368Q406 737 441 728T505 695T549 628T565 514Q565 457 553 419T522 359T479 325T432 307L579 0H477L341 293Q326 293 305 293T260 294T214 295T174 296V0H73ZM174 374H352Q376 374 396 379T431 400T456 443T465
514Q465 556 456 582T431 622T395 641T352 647H174V374Z" />
<glyph unicode="S" horiz-adv-x="582" d="M286 -6Q262 -6 232 -5T170 0T110 6T61 14V92Q87 90 123 88T201 85T282 84Q325 84 358 92T411 122T431 184V227Q431 272 407 296T332 320H257Q161 320 109 362T56 506V546Q56 652 113 697T277 743Q312 743 352 740T430
731T493 721V643Q448 646 393 649T288 653Q246 653 216 644T169 610T152 542V512Q152 458 181 437T262 416H343Q406 416 446 393T507 330T527 239V187Q527 109 495 67T409 10T286 -6Z" />
<glyph unicode="T" horiz-adv-x="573" d="M236 0V647H16V737H557V647H337V0H236Z" />
<glyph unicode="U" horiz-adv-x="679" d="M339 -6Q278 -6 227 5T139 42T83 115T63 231V737H164V232Q164 175 184 144T244 99T339 85Q395 85 434 98T494 143T515 232V737H616V231Q616 161 596 115T540 43T452 5T339 -6Z" />
<glyph unicode="V" horiz-adv-x="678" d="M275 0L29 737H133L339 107L546 737H649L403 0H275Z" />
<glyph unicode="W" horiz-adv-x="991" d="M214 0L29 737H133L279 143L447 737H545L712 143L859 737H962L777 0H671L496 594L320 0H214Z" />
<glyph unicode="X" horiz-adv-x="636" d="M493 0L30 737H140L604 0H493ZM33 0L275 391L326 306L143 0H33ZM360 337L311 425L495 737H606L360 337Z" />
<glyph unicode="Y" horiz-adv-x="621" d="M260 0V238L30 737H135L312 340L490 737H591L361 238V0H260Z" />
<glyph unicode="Z" horiz-adv-x="564" d="M42 0V81L405 647H42V737H527V656L164 90H527V0H42Z" />
<glyph unicode="[" horiz-adv-x="335" d="M248 -210Q195 -210 162 -191T113 -142T91 -78T85 -15V656Q85 692 92 724T118 784T168 826T248 842H316V761H275Q235 761 210 734T185 643V-11Q185 -47 194 -73T224 -114T275 -129H316V-210H248Z" />
<glyph unicode="\" horiz-adv-x="421" d="M301 -72L20 770H120L401 -72H301Z" />
<glyph unicode="]" horiz-adv-x="335" d="M20 -210V-129H61Q92 -129 112 -115T141 -74T150 -11V643Q150 707 126 734T61 761H20V842H88Q136 842 168 827T218 784T243 725T251 656V-15Q251 -44 246 -78T223 -142T174 -191T88 -210H20Z" />
<glyph unicode="^" horiz-adv-x="394" d="M50 531L168 666H238L345 531H285L201 617L110 531H50Z" />
<glyph unicode="_" horiz-adv-x="609" d="M0 -173V-90H609V-173H0Z" />
<glyph unicode="`" horiz-adv-x="220" d="M142 631L20 769H103L201 631H142Z" />
<glyph unicode="a" horiz-adv-x="546" d="M177 -6Q118 -6 80 29T41 128V170Q41 232 83 271T212 311H379V367Q379 398 369 419T330 452T247 463H83V522Q119 530 167 536T281 543Q347 543 391 527T458 473T480 373V0H401L384 59Q378 55 359 45T311 22T247 2T177
-6ZM223 67Q238 66 258 70T299 79T337 91T366 101T379 107V261L239 255Q187 252 165 229T142 169V145Q142 116 154 99T184 74T223 67Z" />
<glyph unicode="b" horiz-adv-x="580" d="M342 -6Q305 -6 274 3T217 25T170 53L152 0H70V763H170V490Q207 510 252 526T337 542Q403 542 445 515T507 426T528 263Q528 178 509 118T449 26T342 -6ZM307 77Q346 77 372 96T413 158T428 268Q428 350 412 391T369 446T307
460Q267 460 235 449T170 420V115Q197 101 231 89T307 77Z" />
<glyph unicode="c" horiz-adv-x="490" d="M269 -6Q222 -6 183 6T114 49T68 132T52 266Q52 349 67 402T110 486T180 529T272 541Q314 541 360 537T451 524V465H300Q251 465 218 450T169 391T153 265Q153 186 170 144T219 86T301 71H459V14Q436 8 405 4T339 -3T269 -6Z" />
<glyph unicode="d" horiz-adv-x="577" d="M244 -6Q179 -6 137 22T73 109T52 263Q52 362 71 423T135 513T254 542Q296 542 337 533T410 513V763H510V0H428L410 53Q394 39 366 26T306 3T244 -6ZM276 76Q317 76 350 89T410 116V441Q379 450 350 457T284 465Q237 465
208 448T166 388T153 268Q153 197 165 155T204 94T276 76Z" />
<glyph unicode="e" horiz-adv-x="540" d="M281 -6Q196 -6 146 19T74 103T52 268Q52 375 73 434T145 518T280 542Q354 542 399 527T466 472T488 362Q488 313 469 284T414 242T329 229H152Q153 171 165 137T210 87T306 71H473V11Q430 5 385 0T281 -6ZM151 292H320Q360
292 379 307T398 362Q398 402 387 425T349 458T280 468Q231 468 203 453T163 400T151 292Z" />
<glyph unicode="f" horiz-adv-x="375" d="M102 0V453H22V518L102 535V588Q102 648 117 688T167 749T263 769Q298 769 323 765T368 758V686H281Q249 686 232 676T209 645T202 593V535H359V453H202V0H102Z" />
<glyph unicode="g" horiz-adv-x="578" d="M203 -246Q152 -246 113 -232T50 -188T27 -115V-93Q27 -48 52 -18T117 29T198 45L225 8Q198 8 175 0T137 -27T122 -75V-94Q122 -136 150 -155T229 -174H346Q399 -174 430 -154T461 -90V-71Q461 -47 451 -29T417 -2T354
8H206Q135 8 98 37T61 110Q61 150 84 174T151 208Q115 224 95 249T66 303T58 363Q58 424 83 462T155 518T269 536H557V479L448 468Q460 459 474 445T498 405T508 339Q508 296 490 259T430 199T317 176H229Q191 176 169 165T147 126Q147 103 164 94T200 85H369Q430
85 471 69T534 20T555 -66V-85Q555 -161 506 -203T356 -246H203ZM247 253H306Q351 253 374 266T407 302T416 351Q416 391 403 414T368 448T313 459H257Q206 459 178 436T149 357Q149 302 175 278T247 253Z" />
<glyph unicode="h" horiz-adv-x="590" d="M70 0V763H170V477Q205 503 255 523T358 544Q416 544 452 520T506 455T523 361V0H423V349Q423 380 411 403T376 440T322 453Q292 453 267 447T218 430T170 405V0H70Z" />
<glyph unicode="i" horiz-adv-x="240" d="M84 625Q66 625 66 642V726Q66 744 84 744H158Q166 744 170 739T174 726V642Q174 625 158 625H84ZM70 0V535H170V0H70Z" />
<glyph unicode="j" horiz-adv-x="240" d="M83 625Q66 625 66 642V726Q66 744 83 744H158Q166 744 170 739T174 726V642Q174 625 158 625H83ZM70 -237V535H170V13Q170 -56 163 -123T145 -237H70Z" />
<glyph unicode="k" horiz-adv-x="521" d="M70 0V763H170V330H243L392 535H496L317 285L509 0H404L240 240H170V0H70Z" />
<glyph unicode="l" horiz-adv-x="300" d="M219 -1Q170 -1 137 16T87 70T70 172V763H170V185Q170 143 178 121T202 89T239 77L289 71V-1H219Z" />
<glyph unicode="m" horiz-adv-x="943" d="M70 0V535H150L170 477Q209 504 256 524T364 544Q414 544 449 522T502 466Q526 484 560 502T633 532T708 544Q768 544 805 520T859 453T876 356V0H776V348Q776 380 764 403T729 440T674 453Q634 453 592 438T515 400Q519
387 521 374T523 347V0H423V348Q423 380 411 403T376 440T322 453Q292 453 267 447T218 431T170 405V0H70Z" />
<glyph unicode="n" horiz-adv-x="590" d="M70 0V535H150L170 477Q206 503 255 523T358 544Q418 544 454 519T507 451T523 360V0H423V348Q423 380 411 403T376 440T322 453Q292 453 267 447T218 431T170 405V0H70Z" />
<glyph unicode="o" horiz-adv-x="576" d="M288 -6Q227 -6 183 7T109 50T66 134T52 268Q52 352 66 405T109 489T183 530T288 542Q348 542 393 530T467 488T510 405T524 268Q524 186 510 133T468 49T394 7T288 -6ZM288 76Q321 76 346 82T389 107T415 166T424 269Q424
333 415 371T389 429T347 454T288 461Q254 461 229 455T187 429T162 372T153 269Q153 205 161 166T186 108T228 82T288 76Z" />
<glyph unicode="p" horiz-adv-x="580" d="M70 -237V535H152L170 481Q189 495 215 509T273 532T337 542Q388 542 424 521T484 463T517 375T528 268Q528 179 509 118T448 25T337 -7Q295 -7 251 5T170 39V-237H70ZM307 77Q341 77 368 94T411 152T428 268Q428 338
411 380T367 441T308 460Q266 460 232 447T170 420V115Q201 98 236 88T307 77Z" />
<glyph unicode="q" horiz-adv-x="577" d="M410 -237V53Q375 28 331 11T244 -6Q173 -6 131 24T70 115T52 268Q52 364 73 424T139 513T253 542Q301 542 348 540T437 534T510 526V-237H410ZM270 76Q306 76 342 87T410 116V465H280Q232 465 204 442T165 375T153 271Q153
199 165 156T202 95T270 76Z" />
<glyph unicode="r" horiz-adv-x="416" d="M70 0V535H147L170 445Q204 486 246 514T344 542Q357 542 369 541T392 536V433Q378 435 363 436T332 438Q298 438 271 430T220 406T170 365V0H70Z" />
<glyph unicode="s" horiz-adv-x="501" d="M257 -6Q236 -6 207 -5T148 -2T92 4T51 11V71H276Q305 71 326 75T358 95T370 139V161Q370 191 350 208T284 225H206Q159 225 123 237T66 280T45 361V390Q45 441 64 474T127 523T241 540Q271 540 307 538T379 531T435 522V462H223Q179
462 156 447T132 390V370Q132 344 143 330T174 312T223 308H303Q379 308 418 273T457 173V132Q457 78 432 48T363 6T257 -6Z" />
<glyph unicode="t" horiz-adv-x="374" d="M255 0Q201 0 166 17T114 74T98 178L102 453H17V518L104 535L119 685H198V535H343V453H198V179Q198 148 204 129T221 100T245 86T270 80L336 74V0H255Z" />
<glyph unicode="u" horiz-adv-x="590" d="M227 -6Q152 -6 111 34T69 158V535H169V185Q169 125 196 104T274 83Q314 83 350 95T422 130V535H522V0H442L422 57Q383 32 333 13T227 -6Z" />
<glyph unicode="v" horiz-adv-x="545" d="M211 0L17 535H120L271 93L425 535H528L327 0H211Z" />
<glyph unicode="w" horiz-adv-x="806" d="M173 0L17 535H120L237 93L363 535H448L574 93L686 535H789L635 0H524L404 397L282 0H173Z" />
<glyph unicode="x" horiz-adv-x="518" d="M398 0L18 535H120L500 0H398ZM18 0L221 297L258 205L120 0H18ZM296 236L253 318L398 534L500 535L296 236Z" />
<glyph unicode="y" horiz-adv-x="550" d="M221 -237L286 0Q254 1 225 13T174 54T137 131L17 535H122L230 152Q239 125 250 111T273 92T294 85T305 84L430 535H533L349 -138L301 -237H221Z" />
<glyph unicode="z" horiz-adv-x="498" d="M49 0V74L340 453H41V535H457V460L165 81H457V0H49Z" />
<glyph unicode="{" horiz-adv-x="312" d="M292 -210Q232 -210 194 -197T134 -161T104 -107T95 -38V222Q95 243 85 258T57 280T20 286V381Q37 383 54 388T84 407T96 445V656Q96 709 114 751T176 818T292 842V761Q259 761 238 748T207 705T197 620V429Q197 384 171
362T106 334Q145 327 170 303T196 242V-6Q196 -76 218 -104T292 -133V-210Z" />
<glyph unicode="|" horiz-adv-x="252" d="M85 -72V770H167V-72H85Z" />
<glyph unicode="}" horiz-adv-x="312" d="M20 -210V-133Q73 -133 94 -105T116 -6V242Q116 279 141 303T207 334Q167 339 141 361T115 429V620Q115 675 106 705T75 748T20 761V842Q94 842 136 818T197 752T216 656V445Q216 420 228 407T258 389T292 381V286Q272
288 255 281T228 258T217 222V-38Q217 -75 209 -106T179 -161T119 -197T20 -210Z" />
<glyph unicode="~" horiz-adv-x="442" d="M284 536Q267 536 250 545T216 564T184 583T158 592Q132 592 111 580T64 549L50 584Q73 609 101 629T164 649Q180 649 196 641T229 621T259 602T285 593Q311 593 336 609T377 640L392 603Q372 578 345 557T284 536Z" />
<glyph unicode="&#xa0;" horiz-adv-x="266" />
<glyph unicode="&#xa1;" horiz-adv-x="268" d="M173 334L186 -201H85L100 334H173ZM165 536Q183 536 183 519V432Q183 414 165 414H108Q90 414 90 432V519Q90 528 95 532T108 536H165Z" />
<glyph unicode="&#xa2;" horiz-adv-x="487" d="M234 -88V-5Q193 -5 158 6T97 47T55 130T40 266Q40 350 54 403T95 485T157 525T236 536V625H294V535Q328 532 366 525T440 505V446Q417 451 374 455T270 459Q238 459 214 452T173 425T148 365T140 263Q140 203 148
166T173 108T215 80T273 72Q315 72 347 74T403 80T447 88V28Q405 11 370 4T293 -5V-88H234Z" />
<glyph unicode="&#xa3;" horiz-adv-x="609" d="M62 0V76L166 90V328L62 336V387L166 401V511Q166 599 191 648T265 719T387 740Q431 740 472 737T539 729V650H391Q349 650 322 640T280 602T266 521V401L471 392V336L266 328V90H549V0H62Z" />
<glyph unicode="&#xa4;" horiz-adv-x="609" d="M304 187Q258 187 220 210T159 271T136 356Q136 403 159 441T220 502T304 525Q351 525 389 502T450 441T473 356Q473 310 450 272T389 210T304 187ZM118 125L73 170L181 278L226 233L118 125ZM177 438L73 542L118
587L222 483L177 438ZM490 125L384 231L429 276L535 170L490 125ZM304 243Q335 243 360 258T401 300T417 356Q417 387 402 412T361 453T304 469Q274 469 249 454T208 413T193 356Q193 326 208 300T248 259T304 243ZM429 436L384 481L490 587L535 542L429 436Z"
/>
<glyph unicode="&#xa5;" horiz-adv-x="609" d="M79 260V316H530V260H79ZM79 130V186H530V130H79ZM244 0V238L13 737H118L296 340L473 737H575L344 238V0H244Z" />
<glyph unicode="&#xa6;" horiz-adv-x="252" d="M85 429V770H167V429H85ZM85 -72V256H167V-72H85Z" />
<glyph unicode="&#xa7;" horiz-adv-x="547" d="M316 -6Q293 -6 263 -6T201 -4T139 0T92 5V75H297Q337 75 357 83T385 104T393 136V181Q393 200 388 210T368 225T321 230H203Q152 230 118 240T67 274T50 339V388Q50 434 67 454T119 485Q84 497 72 526T59 590V650Q59
695 78 724T134 769T227 784Q248 784 279 784T345 782T409 778T456 772V703H241Q213 703 194 698T165 678T155 636V595Q155 566 172 555T226 544H343Q402 544 435 533T484 497T499 431V383Q499 344 484 321T433 289Q456 283 468 269T486 234T491 192V133Q491 80
470 50T410 7T316 -6ZM225 307H321Q356 307 373 310T397 325T403 363V410Q403 432 396 444T371 461T321 466H225Q180 466 163 454T146 408V362Q146 345 153 333T177 314T225 307Z" />
<glyph unicode="&#xa8;" horiz-adv-x="409" d="M279 648Q262 648 262 665V749Q262 767 279 767H326Q334 767 338 762T343 749V665Q343 648 326 648H279ZM84 648Q66 648 66 665V749Q66 767 84 767H130Q139 767 143 762T147 749V665Q147 648 130 648H84Z" />
<glyph unicode="&#xa9;" horiz-adv-x="832" d="M312 0Q255 0 213 21T140 80T91 164T64 263T55 368Q55 434 66 499T105 616T183 700T312 732H543Q603 732 644 711T711 652T752 567T772 469T777 368Q777 285 762 217T717 101T644 26T543 0H312ZM385 147Q345 147
310 164T254 229T232 365Q232 446 251 493T305 562T385 583Q406 583 436 581T499 575T559 563V516Q530 521 500 523T445 527T403 528Q367 528 342 513T304 461T291 362Q291 281 317 242T402 202Q450 202 491 206T565 218V171Q522 155 478 151T385 147ZM312 55H538Q590
55 630 87T694 189T718 368Q718 428 711 483T684 582T631 651T543 677H312Q274 677 239 663T176 615T131 521T114 368Q113 309 125 253T161 152T223 81T312 55Z" />
<glyph unicode="&#xaa;" horiz-adv-x="409" d="M31 261V311H370V261H31ZM110 468Q110 448 118 437T139 420T167 415Q181 415 199 418T234 427T262 437T274 441V547L175 542Q140 541 125 525T110 484V468ZM29 487Q29 532 60 557T152 582H274V626Q274 657 257 673T180
689H59V740Q86 747 123 752T211 758Q261 758 294 746T345 707T363 631V360H293L278 403Q274 399 260 392T224 376T179 362T130 356Q86 356 58 381T29 451V487Z" />
<glyph unicode="&#xab;" horiz-adv-x="614" d="M269 64L50 281L265 493L317 441L154 281L321 117L269 64ZM519 64L300 281L515 493L567 441L404 281L571 117L519 64Z" />
<glyph unicode="&#xac;" horiz-adv-x="609" d="M445 195V467H528V195H445ZM80 435V517H528V435H80Z" />
<glyph unicode="&#xad;" horiz-adv-x="345" d="M24 249V331H321V249H24Z" />
<glyph unicode="&#xae;" horiz-adv-x="832" d="M312 0Q255 0 213 21T140 80T91 164T64 263T55 368Q55 434 66 499T105 616T183 700T312 732H543Q603 732 644 711T711 652T752 567T772 469T777 368Q777 285 762 217T717 101T644 26T543 0H312ZM312 55H538Q590 55
630 87T694 189T718 368Q718 428 711 483T684 582T631 651T543 677H312Q274 677 239 663T176 615T131 521T114 368Q113 309 125 253T161 152T223 81T312 55ZM263 153V580H445Q478 580 507 570T555 531T573 449Q573 412 565 390T543 356T514 339T484 330L582 153H522L426
331L322 334V153H263ZM322 377H446Q479 377 496 389T514 448Q514 493 496 509T446 525H322V377Z" />
<glyph unicode="&#xaf;" horiz-adv-x="369" d="M50 664V724H320V664H50Z" />
<glyph unicode="&#xb0;" horiz-adv-x="326" d="M164 492Q106 492 67 530T28 627Q28 668 46 698T94 746T164 764Q223 764 260 726T298 627Q298 568 261 530T164 492ZM164 539Q203 539 227 564T251 627Q251 667 227 692T164 717Q125 717 100 692T75 627Q75 589 100
564T164 539Z" />
<glyph unicode="&#xb1;" horiz-adv-x="609" d="M80 115V197H528V115H80ZM263 282V730H345V282H263ZM80 465V547H528V465H80Z" />
<glyph unicode="&#xb2;" horiz-adv-x="454" d="M47 280V346L233 531Q272 568 289 600T307 669Q307 691 299 707T269 733T211 743H63V810Q96 815 138 819T229 824Q292 824 329 807T381 757T397 681Q397 644 388 614T357 555T300 490L165 358H415V280H47Z" />
<glyph unicode="&#xb3;" horiz-adv-x="454" d="M238 276Q180 276 131 279T40 289V356H210Q241 356 263 362T297 382T309 423V450Q309 473 297 487T267 507T226 514L93 519V584L223 591Q259 593 280 605T302 647V676Q302 709 279 726T206 743H55V811Q94 817 139
821T239 824Q312 824 350 790T389 694V651Q389 620 378 600T351 569T316 552Q335 547 354 534T385 498T398 443V410Q398 345 356 311T238 276Z" />
<glyph unicode="&#xb4;" horiz-adv-x="220" d="M20 631L117 769H201L79 631H20Z" />
<glyph unicode="&#xb5;" horiz-adv-x="590" d="M260 -6Q221 -6 187 7T126 45T84 105T69 184V535H169V185Q169 145 182 123T219 92T274 83Q318 83 352 95T422 130V535H522V0H442L426 57Q395 29 353 12T260 -6ZM69 -269V235H169V-269H69Z" />
<glyph unicode="&#xb6;" horiz-adv-x="573" d="M266 -270V322Q259 317 240 313T189 309Q137 309 102 329T51 384T34 459V597Q34 645 56 676T115 722T196 737H563V666H491V0H422V668H335V-270H266ZM200 378H266V668H200Q149 668 126 645T103 581V469Q103 438 114
420T141 392T173 381T200 378Z" />
<glyph unicode="&#xb7;" horiz-adv-x="261" d="M102 319Q85 319 85 336V396Q85 414 102 414H159Q177 414 177 396V336Q177 327 172 323T159 319H102Z" />
<glyph unicode="&#xb8;" horiz-adv-x="254" d="M50 -192V-151L71 -148Q96 -146 109 -136T122 -107Q122 -91 111 -80T62 -65L104 -53Q144 -53 165 -69T187 -118Q187 -153 162 -172T88 -192H50ZM62 -65L114 15H160L109 -65H62Z" />
<glyph unicode="&#xb9;" horiz-adv-x="454" d="M191 280V741L72 717V780L200 825H280V280H191ZM64 280V357H407V280H64Z" />
<glyph unicode="&#xba;" horiz-adv-x="430" d="M44 261V311H386V261H44ZM124 557Q124 497 134 468T164 430T215 421Q244 421 264 430T295 468T306 557Q306 618 296 646T265 683T215 692Q185 692 165 684T134 647T124 557ZM36 556Q36 638 54 681T113 741T215 757Q277
757 316 741T375 681T394 556Q394 477 376 434T318 374T215 356Q152 356 113 374T55 435T36 556Z" />
<glyph unicode="&#xbb;" horiz-adv-x="614" d="M98 64L48 117L211 278L45 441L99 493L316 278L98 64ZM348 64L298 117L461 278L295 441L349 493L566 278L348 64Z" />
<glyph unicode="&#xbc;" horiz-adv-x="1275" d="M414 0L788 770H860L486 0H414ZM1083 1V125H837L824 182L1008 540H1096L922 198H1083V306L1104 378H1167V198H1232V139L1167 125V1H1083ZM196 280V741L77 717V780L205 825H285V280H196ZM69 280V357H412V280H69Z" />
<glyph unicode="&#xbd;" horiz-adv-x="1275" d="M414 0L788 770H860L486 0H414ZM842 0V66L1028 251Q1067 288 1084 320T1102 389Q1102 411 1094 427T1064 453T1006 463H858V530Q891 535 933 539T1024 544Q1087 544 1124 527T1176 477T1192 401Q1192 364 1183 334T1152
275T1095 210L960 78H1210V0H842ZM196 280V741L77 717V780L205 825H285V280H196ZM69 280V357H412V280H69Z" />
<glyph unicode="&#xbe;" horiz-adv-x="1275" d="M414 0L788 770H860L486 0H414ZM1083 1V125H837L824 182L1008 540H1096L922 198H1083V306L1104 378H1167V198H1232V139L1167 125V1H1083ZM248 276Q190 276 141 279T50 289V356H220Q251 356 273 362T307 382T319
423V450Q319 473 307 487T277 507T236 514L103 519V584L233 591Q269 593 290 605T312 647V676Q312 709 289 726T216 743H65V811Q104 817 149 821T249 824Q322 824 360 790T399 694V651Q399 620 388 600T361 569T326 552Q345 547 364 534T395 498T408 443V410Q408
345 366 311T248 276Z" />
<glyph unicode="&#xbf;" horiz-adv-x="530" d="M367 335V165H311Q239 165 206 143T172 61V10Q172 -58 203 -86T301 -114Q350 -114 393 -105T486 -77V-149Q442 -176 389 -189T274 -204Q202 -205 158 -180T93 -110T72 -4V63Q72 153 123 198T290 243V335H367ZM357
536Q375 536 375 519V432Q375 414 357 414H300Q283 414 283 432V519Q283 528 288 532T300 536H357Z" />
<glyph unicode="&#xc0;" horiz-adv-x="678" d="M29 0L275 737H403L649 0H544L479 193H197L133 0H29ZM221 284H454L338 649L221 284ZM318 791L196 929H279L377 791H318Z" />
<glyph unicode="&#xc1;" horiz-adv-x="678" d="M29 0L275 737H403L649 0H544L479 193H197L133 0H29ZM221 284H454L338 649L221 284ZM313 791L410 929H494L372 791H313Z" />
<glyph unicode="&#xc2;" horiz-adv-x="678" d="M29 0L275 737H403L649 0H544L479 193H197L133 0H29ZM221 284H454L338 649L221 284ZM188 791L306 928H376L483 791H423L339 882L248 791H188Z" />
<glyph unicode="&#xc3;" horiz-adv-x="678" d="M29 0L275 737H403L649 0H544L479 193H197L133 0H29ZM221 284H454L338 649L221 284ZM161 801Q163 844 177 868T213 904T259 915Q284 915 304 907T342 887T376 868T412 859Q436 859 451 874T467 919H518Q516 862 491
832T419 802Q396 802 376 810T338 830T302 850T266 859Q244 859 229 845T212 801H161Z" />
<glyph unicode="&#xc4;" horiz-adv-x="678" d="M29 0L275 737H403L649 0H544L479 193H197L133 0H29ZM221 284H454L338 649L221 284ZM422 808Q404 808 404 825V909Q404 927 422 927H468Q477 927 481 922T485 909V825Q485 808 468 808H422ZM193 808Q176 808 176
825V909Q176 927 193 927H240Q248 927 252 922T257 909V825Q257 808 240 808H193Z" />
<glyph unicode="&#xc5;" horiz-adv-x="678" d="M29 0L275 737H403L649 0H544L479 193H197L133 0H29ZM221 284H454L338 649L221 284ZM338 765Q283 765 253 788T223 874Q223 935 253 959T338 984Q395 984 423 960T452 874Q452 812 424 789T338 765ZM339 805Q373
805 388 819T404 874Q404 914 389 929T339 944Q305 944 288 929T271 874Q271 834 288 820T339 805Z" />
<glyph unicode="&#xc6;" horiz-adv-x="969" d="M640 -4Q565 -5 524 21T477 116V192H246L128 0H29L368 585Q398 639 432 673T513 722T622 737Q703 736 779 733T915 726V644H637Q598 644 583 629T568 581V412L871 406V328L568 321V170Q568 139 579 122T611 97T658
90H915V8Q852 4 784 1T640 -4ZM291 278H477V598L291 278Z" />
<glyph unicode="&#xc7;" horiz-adv-x="582" d="M317 -6Q251 -6 202 9T120 63T71 177T55 371Q55 483 71 556T121 670T205 727T321 743Q358 743 397 739T473 729T539 714V638Q521 641 490 644T420 650T339 653Q289 653 254 642T197 600T165 514T155 370Q155 281
164 225T195 138T251 96T338 84Q413 84 461 88T539 96V19Q509 12 473 6T398 -3T317 -6ZM264 -192V-151L285 -148Q310 -146 323 -136T336 -107Q336 -91 325 -80T276 -65L318 -53Q358 -53 379 -69T401 -118Q401 -153 376 -172T302 -192H264ZM276 -65L328 15H374L323
-65H276Z" />
<glyph unicode="&#xc8;" horiz-adv-x="590" d="M237 -4Q212 -4 184 0T131 19T89 64T73 145V583Q73 627 86 657T122 704T171 729T226 737Q291 736 345 735T447 731T537 727V644H253Q216 644 195 625T174 565V412L492 406V328L174 321V170Q174 136 185 119T215 96T255
90H537V7Q491 4 440 2T338 -2T237 -4ZM292 791L170 929H253L351 791H292Z" />
<glyph unicode="&#xc9;" horiz-adv-x="590" d="M237 -4Q212 -4 184 0T131 19T89 64T73 145V583Q73 627 86 657T122 704T171 729T226 737Q291 736 345 735T447 731T537 727V644H253Q216 644 195 625T174 565V412L492 406V328L174 321V170Q174 136 185 119T215 96T255
90H537V7Q491 4 440 2T338 -2T237 -4ZM287 791L384 929H468L346 791H287Z" />
<glyph unicode="&#xca;" horiz-adv-x="590" d="M237 -4Q212 -4 184 0T131 19T89 64T73 145V583Q73 627 86 657T122 704T171 729T226 737Q291 736 345 735T447 731T537 727V644H253Q216 644 195 625T174 565V412L492 406V328L174 321V170Q174 136 185 119T215 96T255
90H537V7Q491 4 440 2T338 -2T237 -4ZM162 791L280 928H350L457 791H397L313 882L222 791H162Z" />
<glyph unicode="&#xcb;" horiz-adv-x="590" d="M237 -4Q212 -4 184 0T131 19T89 64T73 145V583Q73 627 86 657T122 704T171 729T226 737Q291 736 345 735T447 731T537 727V644H253Q216 644 195 625T174 565V412L492 406V328L174 321V170Q174 136 185 119T215 96T255
90H537V7Q491 4 440 2T338 -2T237 -4ZM396 808Q378 808 378 825V909Q378 927 396 927H442Q451 927 455 922T459 909V825Q459 808 442 808H396ZM167 808Q150 808 150 825V909Q150 927 167 927H214Q222 927 226 922T231 909V825Q231 808 214 808H167Z" />
<glyph unicode="&#xcc;" horiz-adv-x="247" d="M73 0V737H174V0H73ZM103 791L-19 929H64L162 791H103Z" />
<glyph unicode="&#xcd;" horiz-adv-x="247" d="M73 0V737H174V0H73ZM98 791L195 929H279L157 791H98Z" />
<glyph unicode="&#xce;" horiz-adv-x="247" d="M73 0V737H174V0H73ZM-27 791L91 928H161L268 791H208L124 882L33 791H-27Z" />
<glyph unicode="&#xcf;" horiz-adv-x="247" d="M73 0V737H174V0H73ZM207 808Q189 808 189 825V909Q189 927 207 927H253Q262 927 266 922T270 909V825Q270 808 253 808H207ZM-22 808Q-39 808 -39 825V909Q-39 927 -22 927H25Q33 927 37 922T42 909V825Q42 808
25 808H-22Z" />
<glyph unicode="&#xd0;" horiz-adv-x="673" d="M14 338V406H327V338H14ZM73 0V737H371Q440 737 487 712T563 640T605 524T618 368Q618 250 591 168T508 43T371 0H73ZM174 90H362Q417 90 451 123T501 219T517 368Q517 447 508 500T480 586T432 633T362 647H174V90Z" />
<glyph unicode="&#xd1;" horiz-adv-x="689" d="M84 0V737H166L527 172V737H627V0H546L185 565V0H84ZM164 801Q166 844 180 868T216 904T262 915Q287 915 307 907T345 887T379 868T415 859Q439 859 454 874T470 919H521Q519 862 494 832T422 802Q399 802 379 810T341
830T305 850T269 859Q247 859 232 845T215 801H164Z" />
<glyph unicode="&#xd2;" horiz-adv-x="690" d="M345 -6Q273 -6 219 8T128 60T73 172T55 366Q55 486 73 560T128 674T219 728T345 743Q419 743 473 729T564 675T618 561T636 366Q636 246 618 172T564 60T473 8T345 -6ZM345 84Q397 84 433 95T492 135T525 220T535
366Q535 461 525 518T492 604T434 643T345 653Q296 653 260 643T201 604T167 518T155 366Q155 276 164 221T196 136T255 95T345 84ZM325 791L203 929H286L384 791H325Z" />
<glyph unicode="&#xd3;" horiz-adv-x="690" d="M345 -6Q273 -6 219 8T128 60T73 172T55 366Q55 486 73 560T128 674T219 728T345 743Q419 743 473 729T564 675T618 561T636 366Q636 246 618 172T564 60T473 8T345 -6ZM345 84Q397 84 433 95T492 135T525 220T535
366Q535 461 525 518T492 604T434 643T345 653Q296 653 260 643T201 604T167 518T155 366Q155 276 164 221T196 136T255 95T345 84ZM320 791L417 929H501L379 791H320Z" />
<glyph unicode="&#xd4;" horiz-adv-x="690" d="M345 -6Q273 -6 219 8T128 60T73 172T55 366Q55 486 73 560T128 674T219 728T345 743Q419 743 473 729T564 675T618 561T636 366Q636 246 618 172T564 60T473 8T345 -6ZM345 84Q397 84 433 95T492 135T525 220T535
366Q535 461 525 518T492 604T434 643T345 653Q296 653 260 643T201 604T167 518T155 366Q155 276 164 221T196 136T255 95T345 84ZM195 791L313 928H383L490 791H430L346 882L255 791H195Z" />
<glyph unicode="&#xd5;" horiz-adv-x="690" d="M345 -6Q273 -6 219 8T128 60T73 172T55 366Q55 486 73 560T128 674T219 728T345 743Q419 743 473 729T564 675T618 561T636 366Q636 246 618 172T564 60T473 8T345 -6ZM345 84Q397 84 433 95T492 135T525 220T535
366Q535 461 525 518T492 604T434 643T345 653Q296 653 260 643T201 604T167 518T155 366Q155 276 164 221T196 136T255 95T345 84ZM169 801Q171 844 185 868T221 904T267 915Q292 915 312 907T350 887T384 868T420 859Q444 859 459 874T475 919H526Q524 862 499
832T427 802Q404 802 384 810T346 830T310 850T274 859Q252 859 237 845T220 801H169Z" />
<glyph unicode="&#xd6;" horiz-adv-x="690" d="M345 -6Q273 -6 219 8T128 60T73 172T55 366Q55 486 73 560T128 674T219 728T345 743Q419 743 473 729T564 675T618 561T636 366Q636 246 618 172T564 60T473 8T345 -6ZM345 84Q397 84 433 95T492 135T525 220T535
366Q535 461 525 518T492 604T434 643T345 653Q296 653 260 643T201 604T167 518T155 366Q155 276 164 221T196 136T255 95T345 84ZM429 808Q411 808 411 825V909Q411 927 429 927H475Q484 927 488 922T492 909V825Q492 808 475 808H429ZM200 808Q183 808 183 825V909Q183
927 200 927H247Q255 927 259 922T264 909V825Q264 808 247 808H200Z" />
<glyph unicode="&#xd7;" horiz-adv-x="609" d="M433 168L492 227L175 544L116 485L433 168ZM175 168L116 227L433 544L492 485L175 168Z" />
<glyph unicode="&#xd8;" horiz-adv-x="690" d="M67 0L554 737H624L137 0H67ZM345 -6Q273 -6 219 8T128 60T73 172T55 366Q55 486 73 560T128 674T219 728T345 743Q419 743 473 729T564 675T618 561T636 366Q636 246 618 172T564 60T473 8T345 -6ZM345 84Q397 84
433 95T492 135T525 220T535 366Q535 461 525 518T492 604T434 643T345 653Q296 653 260 643T201 604T167 518T155 366Q155 276 164 221T196 136T255 95T345 84Z" />
<glyph unicode="&#xd9;" horiz-adv-x="679" d="M339 -6Q278 -6 227 5T139 42T83 115T63 231V737H164V232Q164 175 184 144T244 99T339 85Q395 85 434 98T494 143T515 232V737H616V231Q616 161 596 115T540 43T452 5T339 -6ZM314 791L192 929H275L373 791H314Z" />
<glyph unicode="&#xda;" horiz-adv-x="679" d="M339 -6Q278 -6 227 5T139 42T83 115T63 231V737H164V232Q164 175 184 144T244 99T339 85Q395 85 434 98T494 143T515 232V737H616V231Q616 161 596 115T540 43T452 5T339 -6ZM309 791L406 929H490L368 791H309Z" />
<glyph unicode="&#xdb;" horiz-adv-x="679" d="M339 -6Q278 -6 227 5T139 42T83 115T63 231V737H164V232Q164 175 184 144T244 99T339 85Q395 85 434 98T494 143T515 232V737H616V231Q616 161 596 115T540 43T452 5T339 -6ZM184 791L302 928H372L479 791H419L335
882L244 791H184Z" />
<glyph unicode="&#xdc;" horiz-adv-x="679" d="M339 -6Q278 -6 227 5T139 42T83 115T63 231V737H164V232Q164 175 184 144T244 99T339 85Q395 85 434 98T494 143T515 232V737H616V231Q616 161 596 115T540 43T452 5T339 -6ZM418 808Q400 808 400 825V909Q400 927
418 927H464Q473 927 477 922T481 909V825Q481 808 464 808H418ZM189 808Q172 808 172 825V909Q172 927 189 927H236Q244 927 248 922T253 909V825Q253 808 236 808H189Z" />
<glyph unicode="&#xdd;" horiz-adv-x="621" d="M260 0V238L30 737H135L312 340L490 737H591L361 238V0H260ZM287 791L384 929H468L346 791H287Z" />
<glyph unicode="&#xde;" horiz-adv-x="568" d="M73 0V737H174V607H331Q364 607 399 599T463 567T511 500T529 381Q529 307 511 261T462 191T397 158T330 149Q317 149 296 150T250 154T206 158T174 161V0H73ZM174 240H316Q348 240 373 252T413 296T428 380Q428
434 414 463T375 504T322 516H174V240Z" />
<glyph unicode="&#xdf;" horiz-adv-x="590" d="M396 -7Q348 -7 305 -3T237 8V75Q262 74 298 73T372 71Q413 71 435 83T465 112T473 143V163Q473 183 460 195T426 217T381 235T336 257T302 290T288 341Q288 374 302 399T336 446T377 489T411 534T425 586Q425 637
392 660T297 684Q229 684 195 647T160 535V0H60V544Q60 607 85 657T162 737T297 767Q378 767 427 744T498 681T520 592Q520 555 507 528T473 478T433 437T398 399T384 358Q384 338 397 325T432 303T477 285T521 261T555 226T569 170V141Q569 101 554 73T514 27T458
1T396 -7Z" />
<glyph unicode="&#xe0;" horiz-adv-x="546" d="M177 -6Q118 -6 80 29T41 128V170Q41 232 83 271T212 311H379V367Q379 398 369 419T330 452T247 463H83V522Q119 530 167 536T281 543Q347 543 391 527T458 473T480 373V0H401L384 59Q378 55 359 45T311 22T247 2T177
-6ZM223 67Q238 66 258 70T299 79T337 91T366 101T379 107V261L239 255Q187 252 165 229T142 169V145Q142 116 154 99T184 74T223 67ZM261 631L139 769H222L320 631H261Z" />
<glyph unicode="&#xe1;" horiz-adv-x="546" d="M177 -6Q118 -6 80 29T41 128V170Q41 232 83 271T212 311H379V367Q379 398 369 419T330 452T247 463H83V522Q119 530 167 536T281 543Q347 543 391 527T458 473T480 373V0H401L384 59Q378 55 359 45T311 22T247 2T177
-6ZM223 67Q238 66 258 70T299 79T337 91T366 101T379 107V261L239 255Q187 252 165 229T142 169V145Q142 116 154 99T184 74T223 67ZM234 631L331 769H415L293 631H234Z" />
<glyph unicode="&#xe2;" horiz-adv-x="546" d="M177 -6Q118 -6 80 29T41 128V170Q41 232 83 271T212 311H379V367Q379 398 369 419T330 452T247 463H83V522Q119 530 167 536T281 543Q347 543 391 527T458 473T480 373V0H401L384 59Q378 55 359 45T311 22T247 2T177
-6ZM223 67Q238 66 258 70T299 79T337 91T366 101T379 107V261L239 255Q187 252 165 229T142 169V145Q142 116 154 99T184 74T223 67ZM120 631L238 768H308L415 631H355L271 722L180 631H120Z" />
<glyph unicode="&#xe3;" horiz-adv-x="546" d="M177 -6Q118 -6 80 29T41 128V170Q41 232 83 271T212 311H379V367Q379 398 369 419T330 452T247 463H83V522Q119 530 167 536T281 543Q347 543 391 527T458 473T480 373V0H401L384 59Q378 55 359 45T311 22T247 2T177
-6ZM223 67Q238 66 258 70T299 79T337 91T366 101T379 107V261L239 255Q187 252 165 229T142 169V145Q142 116 154 99T184 74T223 67ZM101 641Q103 684 117 708T153 744T199 755Q224 755 244 747T282 727T316 708T352 699Q376 699 391 714T407 759H458Q456 702
431 672T359 642Q336 642 316 650T278 670T242 690T206 699Q184 699 169 685T152 641H101Z" />
<glyph unicode="&#xe4;" horiz-adv-x="546" d="M177 -6Q118 -6 80 29T41 128V170Q41 232 83 271T212 311H379V367Q379 398 369 419T330 452T247 463H83V522Q119 530 167 536T281 543Q347 543 391 527T458 473T480 373V0H401L384 59Q378 55 359 45T311 22T247 2T177
-6ZM223 67Q238 66 258 70T299 79T337 91T366 101T379 107V261L239 255Q187 252 165 229T142 169V145Q142 116 154 99T184 74T223 67ZM342 648Q325 648 325 665V749Q325 767 342 767H389Q397 767 401 762T406 749V665Q406 648 389 648H342ZM147 648Q129 648 129
665V749Q129 767 147 767H193Q202 767 206 762T210 749V665Q210 648 193 648H147Z" />
<glyph unicode="&#xe5;" horiz-adv-x="546" d="M177 -6Q118 -6 80 29T41 128V170Q41 232 83 271T212 311H379V367Q379 398 369 419T330 452T247 463H83V522Q119 530 167 536T281 543Q347 543 391 527T458 473T480 373V0H401L384 59Q378 55 359 45T311 22T247 2T177
-6ZM223 67Q238 66 258 70T299 79T337 91T366 101T379 107V261L239 255Q187 252 165 229T142 169V145Q142 116 154 99T184 74T223 67ZM270 591Q215 591 185 614T155 700Q155 761 185 785T270 810Q327 810 355 786T384 700Q384 638 356 615T270 591ZM271 631Q305
631 320 645T336 700Q336 740 321 755T271 770Q237 770 220 755T203 700Q203 660 220 646T271 631Z" />
<glyph unicode="&#xe6;" horiz-adv-x="872" d="M182 -6Q134 -6 103 12T58 61T43 131V168Q43 209 61 240T116 288T211 306H381V369Q381 397 370 418T332 451T258 463H85V522Q124 532 165 537T268 543Q325 543 371 523T436 460Q458 504 502 523T609 542Q680 542
725 526T793 471T816 360Q816 290 773 265T651 239H479Q479 186 491 153T525 102T577 78T644 71H800V11Q753 1 700 -2T599 -6Q549 -6 513 8T452 46T413 96Q389 70 354 47T275 9T182 -6ZM225 67Q270 67 314 87T392 143Q388 158 384 187T379 254L229 248Q182 247
163 224T144 169V147Q144 116 155 99T185 74T225 67ZM479 304H648Q672 304 689 309T715 326T725 362Q725 400 713 422T674 455T602 465Q554 465 528 452T491 404T479 304Z" />
<glyph unicode="&#xe7;" horiz-adv-x="490" d="M269 -6Q222 -6 183 6T114 49T68 132T52 266Q52 349 67 402T110 486T180 529T272 541Q314 541 360 537T451 524V465H300Q251 465 218 450T169 391T153 265Q153 186 170 144T219 86T301 71H459V14Q436 8 405 4T339
-3T269 -6ZM199 -192V-151L220 -148Q245 -146 258 -136T271 -107Q271 -91 260 -80T211 -65L253 -53Q293 -53 314 -69T336 -118Q336 -153 311 -172T237 -192H199ZM211 -65L263 15H309L258 -65H211Z" />
<glyph unicode="&#xe8;" horiz-adv-x="540" d="M281 -6Q196 -6 146 19T74 103T52 268Q52 375 73 434T145 518T280 542Q354 542 399 527T466 472T488 362Q488 313 469 284T414 242T329 229H152Q153 171 165 137T210 87T306 71H473V11Q430 5 385 0T281 -6ZM151 292H320Q360
292 379 307T398 362Q398 402 387 425T349 458T280 468Q231 468 203 453T163 400T151 292ZM261 631L139 769H222L320 631H261Z" />
<glyph unicode="&#xe9;" horiz-adv-x="540" d="M281 -6Q196 -6 146 19T74 103T52 268Q52 375 73 434T145 518T280 542Q354 542 399 527T466 472T488 362Q488 313 469 284T414 242T329 229H152Q153 171 165 137T210 87T306 71H473V11Q430 5 385 0T281 -6ZM151 292H320Q360
292 379 307T398 362Q398 402 387 425T349 458T280 468Q231 468 203 453T163 400T151 292ZM234 631L331 769H415L293 631H234Z" />
<glyph unicode="&#xea;" horiz-adv-x="540" d="M281 -6Q196 -6 146 19T74 103T52 268Q52 375 73 434T145 518T280 542Q354 542 399 527T466 472T488 362Q488 313 469 284T414 242T329 229H152Q153 171 165 137T210 87T306 71H473V11Q430 5 385 0T281 -6ZM151 292H320Q360
292 379 307T398 362Q398 402 387 425T349 458T280 468Q231 468 203 453T163 400T151 292ZM120 631L238 768H308L415 631H355L271 722L180 631H120Z" />
<glyph unicode="&#xeb;" horiz-adv-x="540" d="M281 -6Q196 -6 146 19T74 103T52 268Q52 375 73 434T145 518T280 542Q354 542 399 527T466 472T488 362Q488 313 469 284T414 242T329 229H152Q153 171 165 137T210 87T306 71H473V11Q430 5 385 0T281 -6ZM151 292H320Q360
292 379 307T398 362Q398 402 387 425T349 458T280 468Q231 468 203 453T163 400T151 292ZM342 648Q325 648 325 665V749Q325 767 342 767H389Q397 767 401 762T406 749V665Q406 648 389 648H342ZM147 648Q129 648 129 665V749Q129 767 147 767H193Q202 767 206
762T210 749V665Q210 648 193 648H147Z" />
<glyph unicode="&#xec;" horiz-adv-x="238" d="M70 0V535H170V0H70ZM111 631L-11 769H72L170 631H111Z" />
<glyph unicode="&#xed;" horiz-adv-x="238" d="M70 0V535H170V0H70ZM84 631L181 769H265L143 631H84Z" />
<glyph unicode="&#xee;" horiz-adv-x="238" d="M70 0V535H170V0H70ZM-30 631L88 768H158L265 631H205L121 722L30 631H-30Z" />
<glyph unicode="&#xef;" horiz-adv-x="238" d="M70 0V535H170V0H70ZM192 648Q175 648 175 665V749Q175 767 192 767H239Q247 767 251 762T256 749V665Q256 648 239 648H192ZM-3 648Q-21 648 -21 665V749Q-21 767 -3 767H43Q52 767 56 762T60 749V665Q60 648 43 648H-3Z" />
<glyph unicode="&#xf0;" horiz-adv-x="576" d="M288 -6Q227 -6 183 6T109 49T66 131T52 264Q52 346 67 398T111 480T181 520T275 532Q320 532 354 523T413 492T452 436Q467 412 484 389T512 338T524 268Q524 186 510 133T468 49T394 7T288 -6ZM288 76Q321 76 346
82T389 107T415 164T424 264Q424 327 415 364T389 420T347 445T288 452Q254 452 229 446T187 421T162 365T153 264Q153 202 161 164T186 107T228 82T288 76ZM524 268L434 300Q434 414 415 489T359 610T268 677T141 704V766Q238 761 309 735T429 651T500 500T524
268ZM175 574L162 609L507 744L521 708L175 574Z" />
<glyph unicode="&#xf1;" horiz-adv-x="590" d="M70 0V535H150L170 477Q206 503 255 523T358 544Q418 544 454 519T507 451T523 360V0H423V348Q423 380 411 403T376 440T322 453Q292 453 267 447T218 431T170 405V0H70ZM126 641Q128 684 142 708T178 744T224 755Q249
755 269 747T307 727T341 708T377 699Q401 699 416 714T432 759H483Q481 702 456 672T384 642Q361 642 341 650T303 670T267 690T231 699Q209 699 194 685T177 641H126Z" />
<glyph unicode="&#xf2;" horiz-adv-x="576" d="M288 -6Q227 -6 183 7T109 50T66 134T52 268Q52 352 66 405T109 489T183 530T288 542Q348 542 393 530T467 488T510 405T524 268Q524 186 510 133T468 49T394 7T288 -6ZM288 76Q321 76 346 82T389 107T415 166T424
269Q424 333 415 371T389 429T347 454T288 461Q254 461 229 455T187 429T162 372T153 269Q153 205 161 166T186 108T228 82T288 76ZM279 631L157 769H240L338 631H279Z" />
<glyph unicode="&#xf3;" horiz-adv-x="576" d="M288 -6Q227 -6 183 7T109 50T66 134T52 268Q52 352 66 405T109 489T183 530T288 542Q348 542 393 530T467 488T510 405T524 268Q524 186 510 133T468 49T394 7T288 -6ZM288 76Q321 76 346 82T389 107T415 166T424
269Q424 333 415 371T389 429T347 454T288 461Q254 461 229 455T187 429T162 372T153 269Q153 205 161 166T186 108T228 82T288 76ZM252 631L349 769H433L311 631H252Z" />
<glyph unicode="&#xf4;" horiz-adv-x="576" d="M288 -6Q227 -6 183 7T109 50T66 134T52 268Q52 352 66 405T109 489T183 530T288 542Q348 542 393 530T467 488T510 405T524 268Q524 186 510 133T468 49T394 7T288 -6ZM288 76Q321 76 346 82T389 107T415 166T424
269Q424 333 415 371T389 429T347 454T288 461Q254 461 229 455T187 429T162 372T153 269Q153 205 161 166T186 108T228 82T288 76ZM138 631L256 768H326L433 631H373L289 722L198 631H138Z" />
<glyph unicode="&#xf5;" horiz-adv-x="576" d="M288 -6Q227 -6 183 7T109 50T66 134T52 268Q52 352 66 405T109 489T183 530T288 542Q348 542 393 530T467 488T510 405T524 268Q524 186 510 133T468 49T394 7T288 -6ZM288 76Q321 76 346 82T389 107T415 166T424
269Q424 333 415 371T389 429T347 454T288 461Q254 461 229 455T187 429T162 372T153 269Q153 205 161 166T186 108T228 82T288 76ZM119 641Q121 684 135 708T171 744T217 755Q242 755 262 747T300 727T334 708T370 699Q394 699 409 714T425 759H476Q474 702 449
672T377 642Q354 642 334 650T296 670T260 690T224 699Q202 699 187 685T170 641H119Z" />
<glyph unicode="&#xf6;" horiz-adv-x="576" d="M288 -6Q227 -6 183 7T109 50T66 134T52 268Q52 352 66 405T109 489T183 530T288 542Q348 542 393 530T467 488T510 405T524 268Q524 186 510 133T468 49T394 7T288 -6ZM288 76Q321 76 346 82T389 107T415 166T424
269Q424 333 415 371T389 429T347 454T288 461Q254 461 229 455T187 429T162 372T153 269Q153 205 161 166T186 108T228 82T288 76ZM360 648Q343 648 343 665V749Q343 767 360 767H407Q415 767 419 762T424 749V665Q424 648 407 648H360ZM165 648Q147 648 147 665V749Q147
767 165 767H211Q220 767 224 762T228 749V665Q228 648 211 648H165Z" />
<glyph unicode="&#xf7;" horiz-adv-x="609" d="M275 504Q251 504 251 527V586Q251 611 275 611H333Q358 611 358 586V527Q358 514 351 509T333 504H275ZM275 101Q251 101 251 124V183Q251 208 275 208H333Q358 208 358 183V124Q358 111 351 106T333 101H275ZM80
315V397H528V315H80Z" />
<glyph unicode="&#xf8;" horiz-adv-x="576" d="M44 0L481 535H532L95 0H44ZM288 -6Q227 -6 183 7T109 50T66 134T52 268Q52 352 66 405T109 489T183 530T288 542Q348 542 393 530T467 488T510 405T524 268Q524 186 510 133T468 49T394 7T288 -6ZM288 76Q321 76
346 82T389 107T415 166T424 269Q424 333 415 371T389 429T347 454T288 461Q254 461 229 455T187 429T162 372T153 269Q153 205 161 166T186 108T228 82T288 76Z" />
<glyph unicode="&#xf9;" horiz-adv-x="590" d="M227 -6Q152 -6 111 34T69 158V535H169V185Q169 125 196 104T274 83Q314 83 350 95T422 130V535H522V0H442L422 57Q383 32 333 13T227 -6ZM279 631L157 769H240L338 631H279Z" />
<glyph unicode="&#xfa;" horiz-adv-x="590" d="M227 -6Q152 -6 111 34T69 158V535H169V185Q169 125 196 104T274 83Q314 83 350 95T422 130V535H522V0H442L422 57Q383 32 333 13T227 -6ZM252 631L349 769H433L311 631H252Z" />
<glyph unicode="&#xfb;" horiz-adv-x="590" d="M227 -6Q152 -6 111 34T69 158V535H169V185Q169 125 196 104T274 83Q314 83 350 95T422 130V535H522V0H442L422 57Q383 32 333 13T227 -6ZM138 631L256 768H326L433 631H373L289 722L198 631H138Z" />
<glyph unicode="&#xfc;" horiz-adv-x="590" d="M227 -6Q152 -6 111 34T69 158V535H169V185Q169 125 196 104T274 83Q314 83 350 95T422 130V535H522V0H442L422 57Q383 32 333 13T227 -6ZM360 648Q343 648 343 665V749Q343 767 360 767H407Q415 767 419 762T424
749V665Q424 648 407 648H360ZM165 648Q147 648 147 665V749Q147 767 165 767H211Q220 767 224 762T228 749V665Q228 648 211 648H165Z" />
<glyph unicode="&#xfd;" horiz-adv-x="550" d="M221 -237L286 0Q254 1 225 13T174 54T137 131L17 535H122L230 152Q239 125 250 111T273 92T294 85T305 84L430 535H533L349 -138L301 -237H221ZM233 631L330 769H414L292 631H233Z" />
<glyph unicode="&#xfe;" horiz-adv-x="580" d="M70 -237V763H170V481Q189 495 215 509T273 532T337 542Q387 542 423 521T482 463T517 375T528 268Q528 179 508 118T446 25T337 -7Q295 -7 251 5T170 39V-237H70ZM307 77Q341 77 368 93T411 151T428 263Q428 336
411 379T367 441T308 460Q266 460 232 447T170 420V115Q201 98 236 88T307 77Z" />
<glyph unicode="&#xff;" horiz-adv-x="550" d="M221 -237L286 0Q254 1 225 13T174 54T137 131L17 535H122L230 152Q239 125 250 111T273 92T294 85T305 84L430 535H533L349 -138L301 -237H221ZM341 648Q324 648 324 665V749Q324 767 341 767H388Q396 767 400 762T405
749V665Q405 648 388 648H341ZM146 648Q128 648 128 665V749Q128 767 146 767H192Q201 767 205 762T209 749V665Q209 648 192 648H146Z" />
<glyph unicode="&#x2013;" horiz-adv-x="521" d="M24 248V331H497V248H24Z" />
<glyph unicode="&#x2014;" horiz-adv-x="744" d="M24 248V331H720V248H24Z" />
<glyph unicode="&#x2018;" horiz-adv-x="198" d="M69 519Q60 519 57 525T53 540V686Q53 714 64 728T92 748T122 753Q131 753 136 753T146 750V714Q130 714 126 707T121 690V646H130Q138 646 143 641T149 626V540Q149 519 130 519H69Z" />
<glyph unicode="&#x2019;" horiz-adv-x="198" d="M76 515Q67 515 62 515T52 518V554Q68 554 72 562T76 578V622H68Q60 622 55 627T49 642V728Q49 749 68 749H129Q138 749 141 743T145 728V582Q145 554 134 540T106 520T76 515Z" />
<glyph unicode="&#x201a;" horiz-adv-x="198" d="M76 -113Q67 -113 61 -112T52 -110V-74Q68 -74 72 -66T76 -50V-6H68Q60 -6 55 -1T49 14V100Q49 121 68 121H129Q138 121 141 115T145 100V-46Q145 -74 134 -88T106 -108T76 -113Z" />
<glyph unicode="&#x201c;" horiz-adv-x="332" d="M69 519Q60 519 57 525T53 540V686Q53 714 64 728T92 748T122 753Q131 753 136 753T146 750V714Q130 714 126 707T121 690V646H130Q138 646 143 641T149 626V540Q149 519 130 519H69ZM203 519Q194 519 191 525T187
540V686Q187 714 198 728T226 748T256 753Q265 753 270 753T280 750V714Q264 714 260 707T255 690V646H264Q272 646 277 641T283 626V540Q283 519 264 519H203Z" />
<glyph unicode="&#x201d;" horiz-adv-x="332" d="M76 515Q67 515 62 515T52 518V554Q68 554 72 562T76 578V622H68Q60 622 55 627T49 642V728Q49 749 68 749H129Q138 749 141 743T145 728V582Q145 554 134 540T106 520T76 515ZM210 515Q201 515 196 515T186 518V554Q202
554 206 562T210 578V622H202Q194 622 189 627T183 642V728Q183 749 202 749H263Q272 749 275 743T279 728V582Q279 554 268 540T240 520T210 515Z" />
<glyph unicode="&#x201e;" horiz-adv-x="332" d="M76 -113Q67 -113 61 -112T52 -110V-74Q68 -74 72 -66T76 -50V-6H68Q60 -6 55 -1T49 14V100Q49 121 68 121H129Q138 121 141 115T145 100V-46Q145 -74 134 -88T106 -108T76 -113ZM210 -113Q201 -113 195 -112T186
-110V-74Q202 -74 206 -66T210 -50V-6H202Q194 -6 189 -1T183 14V100Q183 121 202 121H263Q272 121 275 115T279 100V-46Q279 -74 268 -88T240 -108T210 -113Z" />
<glyph unicode="&#x2022;" horiz-adv-x="315" d="M118 307Q85 307 85 339V423Q85 439 93 448T118 458H196Q231 458 231 423V339Q231 321 221 314T196 307H118Z" />
<glyph unicode="&#x2039;" horiz-adv-x="364" d="M269 64L50 281L265 493L317 441L154 281L321 117L269 64Z" />
<glyph unicode="&#x203a;" horiz-adv-x="364" d="M98 64L48 117L211 278L45 441L99 493L316 278L98 64Z" />
</font>
</defs>
</svg>
